Париж-Манхэттен / Paris-Manhattan (Софи Лелуш) [2012 г., Комедия, Мелодрама, DVDRip]

Ответить на тему
 

antanyletun ®

Стаж: 5 лет 3 месяца

Сообщений: 74

Симпатии: 3

Париж-Манхэттен / Paris-Manhattan Год выпуска: 2012
Страна: Франция
Жанр: Комедия, Мелодрама
Продолжительность: 01:14:20
Перевод: Профессиональный (полное дублирование)
Режиссер: Софи Лелуш
Арсен Моска, Мишель Омон, Элис Тальони, Мари-Кристин Адам, Луи-До де Ланкесэ, Патрик Брюэль, Марина Дельтерм, Янник Соулер, Марго Чатели, Глэдис Коэн Главная героиня фильма — большая почитательница творчества Вуди Аллена — к своей радости однажды случайно встречает своего кумира перед знаменитой гостиницей Plaza Athenee в Париже.

Media Info

D:\торрент\фильмы\Paris-Manhetten.2012.D.DVDRip_[Youtracker].avi
General
Complete name : D:\торрент\фильмы\Paris-Manhetten.2012.D.DVDRip_[Youtracker].avi
Format : AVI
Format/Info : Audio Video Interleave
File size : 1.46 GiB
Duration : 1h 14mn
Overall bit rate : 2 814 Kbps
Writing application : VirtualDubMod 1.5.10.2 (build 2540/release)
Writing library : VirtualDubMod build 2540/release
Video #0
ID : 0
Format : MPEG-4 Visual
Format profile : Advanced [email protected]
Format settings, BVOP : 2
Format settings, QPel : No
Format settings, GMC : No warppoints
Format settings, Matrix : Custom
Codec ID : XVID
Codec ID/Hint : XviD
Duration : 1h 14mn
Bit rate : 1 904 Kbps
Width : 720 pixels
Height : 384 pixels
Display aspect ratio : 1.85:1
Frame rate : 25.000 fps
Color space : YUV
Chroma subsampling : 4:2:0
Bit depth : 8 bits
Scan type : Progressive
Compression mode : Lossy
Bits/(Pixel*Frame) : 0.275
Stream size : 1 012 MiB (68%)
Writing library : XviD 1.2.1 (UTC 2008-12-04)
Audio #1
ID : 1
Format : AC-3
Format/Info : Audio Coding 3
Mode extension : CM (complete main)
Format settings, Endianness : Big
Codec ID : 2000
Duration : 1h 14mn
Bit rate mode : Constant
Bit rate : 448 Kbps
Channel(s) : 6 channels
Channel positions : Front: L C R, Side: L R, LFE
Sampling rate : 48.0 KHz
Bit depth : 16 bits
Compression mode : Lossy
Stream size : 238 MiB (16%)
Alignment : Split accross interleaves
Interleave, duration : 40 ms (1.00 video frame)
Interleave, preload duration : 500 ms
Audio #2
ID : 2
Format : AC-3
Format/Info : Audio Coding 3
Mode extension : CM (complete main)
Format settings, Endianness : Big
Codec ID : 2000
Duration : 1h 14mn
Bit rate mode : Constant
Bit rate : 448 Kbps
Channel(s) : 6 channels
Channel positions : Front: L C R, Side: L R, LFE
Sampling rate : 48.0 KHz
Bit depth : 16 bits
Compression mode : Lossy
Stream size : 238 MiB (16%)
Alignment : Split accross interleaves
Interleave, duration : 40 ms (1.00 video frame)
Interleave, preload duration : 500 ms
Качество: DVDRip
Формат: AVI
Видео кодек: XviD
Аудио кодек: AC3
Видео: mpeg4, 720x384, 2.814256 Mbit/s, 25.000 fps
Аудио1: ac3, 48 KHz, 6 channels, 448 Kbit/s
Аудио2: ac3, 48 KHz, 6 channels, 448 Kbit/s

Скриншоты




Создавать темы 02-Сен-2012 22:31

[Профиль]  [ЛС] 

exciter

Стаж: 7 лет 1 месяц

Сообщений: 158

Симпатии: 2

СПАСИБО!!!!

Создавать темы 03-Сен-2012 13:20

[Профиль]  [ЛС] 

antanyletun ®

Стаж: 5 лет 3 месяца

Сообщений: 74

Симпатии: 3

пожалуйста, приятного просмотра....

Создавать темы 03-Сен-2012 17:22

[Профиль]  [ЛС] 

amika

Стаж: 4 года 10 месяцев

Сообщений: 4

Встаньте пожалуйста на раздачу.

Создавать темы 17-Окт-2012 20:41

[Профиль]  [ЛС] 

antanyletun ®

Стаж: 5 лет 3 месяца

Сообщений: 74

Симпатии: 3

вернулся на раздачу...

Создавать темы 19-Окт-2012 10:17

[Профиль]  [ЛС] 
Показать сообщения:    
Ответить на тему

Текущее время: 18-Авг 06:12

Часовой пояс: UTC + 5



Вы не можете начинать темы
Вы не можете отвечать на сообщения
Вы не можете редактировать свои сообщения
Вы не можете удалять свои сообщения
Вы не можете голосовать в опросах
Вы не можете прикреплять файлы к сообщениям
Вы не можете скачивать файлы