Феи 3: Волшебное спасение / Tinker Bell and the Great Fairy Rescue (Бредли Раймонд) [2010 г., мультфильм, приключения, семейный, детский, зарубежный, HDRip]

Ответить на тему
 

antanyletun ®

Стаж: 5 лет 5 месяцев

Сообщений: 74

Симпатии: 3

Феи 3: Волшебное спасение / Tinker Bell and the Great Fairy Rescue Год выпуска: 2010
Страна:
Жанр: мультфильм, приключения, семейный, детский, зарубежный
Продолжительность: 01:16:27
Перевод: Профессиональный (полное дублирование)
Режиссер: Бредли Раймонд
Майкл Шин, Мэй Уитман, Люси Лью, Кристин Ченоуэт, Памела Адлон, Джесси МакКартни, Рэйвен, Джефф Беннетт, Роб Полсен, Фэйт Принс Однажды очаровательная Фея Динь-Динь встретила милашку Лизи, маленькую девочку, которая с самого детства искренне верит в волшебство. У Динь-Динь появляется добрая и нежная привязанность к любознательной девочке и они начинают дружить. Ради нее она будет вынуждена рискнуть, подвергая, таким образом, опасности свою жизнь и будущее сказочной страны Фей. Доп. информация:
Media Info:
D:\торрент\мультфильмы\fei.2010.HDRip.avi
General
Complete name : D:\торрент\мультфильмы\fei.2010.HDRip.avi
Format : AVI
Format/Info : Audio Video Interleave
File size : 1.34 GiB
Duration : 1h 16mn
Overall bit rate : 2 513 Kbps
Writing application : VirtualDubMod 1.5.10.2 (build 2540/release)
Writing library : VirtualDubMod build 2540/release
Video #0
ID : 0
Format : MPEG-4 Visual
Format profile : Advanced Simple@L5
Format settings, BVOP : 1
Format settings, QPel : No
Format settings, GMC : No warppoints
Format settings, Matrix : Custom
Codec ID : XVID
Codec ID/Hint : XviD
Duration : 1h 16mn
Bit rate : 1 603 Kbps
Width : 720 pixels
Height : 400 pixels
Display aspect ratio : 16:9
Frame rate : 23.976 fps
Color space : YUV
Chroma subsampling : 4:2:0
Bit depth : 8 bits
Scan type : Progressive
Compression mode : Lossy
Bits/(Pixel*Frame) : 0.232
Stream size : 877 MiB (64%)
Writing library : XviD 1.2.1 (UTC 2008-12-04)
Audio #1
ID : 1
Format : AC-3
Format/Info : Audio Coding 3
Mode extension : CM (complete main)
Format settings, Endianness : Big
Codec ID : 2000
Duration : 1h 16mn
Bit rate mode : Constant
Bit rate : 448 Kbps
Channel(s) : 6 channels
Channel positions : Front: L C R, Side: L R, LFE
Sampling rate : 48.0 KHz
Bit depth : 16 bits
Compression mode : Lossy
Stream size : 245 MiB (18%)
Alignment : Split accross interleaves
Interleave, duration : 42 ms (1.00 video frame)
Interleave, preload duration : 500 ms
Audio #2
ID : 2
Format : AC-3
Format/Info : Audio Coding 3
Mode extension : CM (complete main)
Format settings, Endianness : Big
Codec ID : 2000
Duration : 1h 16mn
Bit rate mode : Constant
Bit rate : 448 Kbps
Channel(s) : 6 channels
Channel positions : Front: L C R, Side: L R, LFE
Sampling rate : 48.0 KHz
Bit depth : 16 bits
Compression mode : Lossy
Stream size : 245 MiB (18%)
Alignment : Split accross interleaves
Interleave, duration : 42 ms (1.00 video frame)
Interleave, preload duration : 500 ms
Качество: HDRip
Формат: AVI
Видео кодек: XviD
Аудио кодек: AC3
Видео: mpeg4, 720x400, 1 603 kb/s, 23.976 fps
Аудио1: ac3, 48000 Hz, 6 channels, 448 kb/s (rus)
Аудио2: ac3, 48000 Hz, 6 channels, 448 kb/s (eng)

Скриншоты




Создавать темы 04-Сен-2012 01:55

[Профиль]  [ЛС] 

antanyletun ®

Стаж: 5 лет 5 месяцев

Сообщений: 74

Симпатии: 3

Это третья часть про Фею Динь-Динь

Создавать темы 04-Сен-2012 02:24

[Профиль]  [ЛС] 

fr0st

Стаж: 7 лет 9 месяцев

Сообщений: 51

antanyletun, да

Создавать темы 04-Сен-2012 13:42

[Профиль]  [ЛС] 

antanyletun ®

Стаж: 5 лет 5 месяцев

Сообщений: 74

Симпатии: 3

antanyletun, да
да

Создавать темы 04-Сен-2012 14:37

[Профиль]  [ЛС] 

leksa

Стаж: 6 лет 8 месяцев

Сообщений: 5

можно скорости пожалуйста???

Создавать темы 22-Сен-2012 18:41

[Профиль]  [ЛС] 

antanyletun ®

Стаж: 5 лет 5 месяцев

Сообщений: 74

Симпатии: 3

канал открыт на всю, все зависит от вашего канала приема

Создавать темы 24-Сен-2012 23:15

[Профиль]  [ЛС] 

ABU

Стаж: 6 лет 4 месяца

Сообщений: 11

Симпатии: 2

Спасибо Автору

Создавать темы 11-Окт-2012 23:24

[Профиль]  [ЛС] 

antanyletun ®

Стаж: 5 лет 5 месяцев

Сообщений: 74

Симпатии: 3

Спасибо Автору
да не за что, на радость всем и маленьким и большим стараемся.....

Создавать темы 19-Окт-2012 10:15

[Профиль]  [ЛС] 

Shohijahon

Стаж: 5 лет 4 месяца

Сообщений: 6

Чёт нечё не качает , помогите

Создавать темы 25-Окт-2012 14:07

[Профиль]  [ЛС] 

antanyletun ®

Стаж: 5 лет 5 месяцев

Сообщений: 74

Симпатии: 3

Чёт нечё не качает , помогите
встал на раздачу

Создавать темы 25-Окт-2012 20:35

[Профиль]  [ЛС] 

azam

Стаж: 7 лет 4 месяца

Сообщений: 97

Симпатии: 7

Ребята, встанте на раздачу плз...

Создавать темы 13-Дек-2012 14:11

[Профиль]  [ЛС] 

Abzy

Стаж: 4 года 11 месяцев

Сообщений: 29

Стою на раздаче :) качайте на здоровье
Кстати народ, кажеться еще часть есть про какие-то соревнования??

Создавать темы 29-Дек-2012 14:49

[Профиль]  [ЛС] 

ANGELITO

Стаж: 6 лет 6 месяцев

Сообщений: 10

пожалуйста кто скачал встаньте на раздачу!

Создавать темы 26-Янв-2013 00:08

[Профиль]  [ЛС] 
Показать сообщения:    
Ответить на тему

Текущее время: 21-Окт 04:17

Часовой пояс: UTC + 5



Вы не можете начинать темы
Вы не можете отвечать на сообщения
Вы не можете редактировать свои сообщения
Вы не можете удалять свои сообщения
Вы не можете голосовать в опросах
Вы не можете прикреплять файлы к сообщениям
Вы не можете скачивать файлы