Мрачные тени / Dark Shadows (Тим Бёртон) [2012 г., фэнтези, мелодрама, комедия, BDRip-AVC, 720p] DUB + Original (ENG) + sub (rus, eng)

Ответить на тему
 

Robot-IX ®

Стаж: 5 лет 7 месяцев

Сообщений: 223

Симпатии: 9

Мрачные тени / Dark Shadows
Год выпуска: 2012
Страна: США
Жанр: фэнтези, мелодрама, комедия
Продолжительность: 01:53:05
Перевод: Профессиональный (полное дублирование) + Оригинал
Режиссер: Тим Бёртон
В ролях: Джонни Депп, Мишель Пфайффер, Хелена Бонем Картер, Ева Грин, Джеки Эрл Хейли, Джонни Ли Миллер, Белла Хиткот, Хлоя Грейс Морец, Гулливер МакГрат, Кристофер Ли ...
Описание: Владелец поместья Коллинвуд, Барнабас Коллинз, богат, властен и слывет неисправимым Казановой, пока не совершает роковую ошибку, разбив сердце Анжелики Бошар. Будучи ведьмой в буквальном смысле этого слова, она обрекает его на судьбу, худшую, чем сама смерть — обращает его в вампира и хоронит заживо. Два века спустя Барнабаса случайно освобождают из склепа, и тот оказывается в очень изменившемся мире 1972 года. Он возвращается в Коллинвуд и находит в руинах это некогда величественное здание. Жалкие потомки его семьи сохранились лишь немногим лучше родового гнезда, и у каждого из них есть свои «скелеты в шкафу».
Доп.информация:
 
Качество: BDRip-AVC
Формат: MKV
Видео кодек: AVC/H.264
Аудио кодек: AC3/DTS
Видео: 1280x720, ~ 5000 Kbps, H264, 23.976 fps
Аудио Ru #1: AC3, 6ch, 48 kHz, 448 kbps - (дубляж)
Аудио Eng #2: DTS, 6ch, 48 kHz, 1510 kbps, 16-bit - (оригинал) - отдельным файлом
Субтитры Ru1 : SRT1/есть.
Субтитры Eng2 : SRT2/есть.
Меню-Главы: 12/есть
Размер проекта: 5,49

MI

Общее
Полное имя : Mrahnye teni\Mrahnye_Teni.2012.720p.BluRay.Rus..mkv
Формат : Matroska
Версия формата : Version 2
Размер файла : 4,30 Гбайт
Продолжительность : 1 ч. 53 м.
Общий поток : 5448 Кбит/сек
Название фильма : Dark Shadows (2012) - Release for HDCLUB
Библиотека кодирования : libebml v1.2.2 + libmatroska v1.3.0
Видео
Идентификатор : 1
Формат : AVC
Формат/Информация : Advanced Video Codec
Профиль формата : [email protected]
Параметр CABAC формата : Да
Параметр ReFrames формата : 9 кадров
Режим смешивания : Header stripping
Идентификатор кодека : V_MPEG4/ISO/AVC
Продолжительность : 1 ч. 53 м.
Битрейт : 5000 Кбит/сек
Ширина : 1280 пикселей
Высота : 720 пикселей
Соотношение сторон : 16:9
Частота кадров : 23,976 кадра/сек
Цветовое пространство : YUV
Субдискретизация насыщенности : 4:2:0
Битовая глубина : 8 бит
Тип развёртки : Прогрессивная
Бит/(Пиксели*Кадры) : 0.226
Размер потока : 3,86 Гбайт (90%)
Заголовок : Release for HDCLUB
Библиотека кодирования : x264 core 125 r2208 d9d2288
Язык : English
Default : Да
Forced : Нет
Аудио
Идентификатор : 2
Формат : AC-3
Формат/Информация : Audio Coding 3
Расширение режима : CM (complete main)
Параметр Endianness формата : Big
Режим смешивания : Header stripping
Идентификатор кодека : A_AC3
Продолжительность : 1 ч. 53 м.
Вид битрейта : Постоянный
Битрейт : 448 Кбит/сек
Каналы : 6 каналов
Расположение каналов : Front: L C R, Side: L R, LFE
Частота : 48,0 КГц
Битовая глубина : 16 бит
Метод сжатия : С потерями
Размер потока : 362 Мбайт (8%)
Заголовок : AC3 5.1 @ 448 kbps - DUB Blu-ray CEE
Язык : Russian
Default : Да
Forced : Нет
Текст #1
Идентификатор : 3
Формат : UTF-8
Идентификатор кодека : S_TEXT/UTF8
Идентификатор кодека/Информация : UTF-8 Plain Text
Язык : Russian
Default : Нет
Forced : Нет
Текст #2
Идентификатор : 4
Формат : UTF-8
Идентификатор кодека : S_TEXT/UTF8
Идентификатор кодека/Информация : UTF-8 Plain Text
Язык : English
Default : Нет
Forced : Нет
Меню
00:00:00.000 : en:00:00:00.000
00:12:25.203 : en:00:12:25.203
00:19:57.780 : en:00:19:57.780
00:30:21.486 : en:00:30:21.486
00:38:55.041 : en:00:38:55.041
00:49:48.235 : en:00:49:48.235
01:00:11.066 : en:01:00:11.066
01:09:47.392 : en:01:09:47.392
01:19:36.772 : en:01:19:36.772
01:29:05.340 : en:01:29:05.340
01:39:36.888 : en:01:39:36.888
01:48:26.041 : en:01:48:26.041
_______________________________________________________________________________________________________
Общее
Полное имя : Mrahnye teni\Mrahnye_Teni.2012.Eng.DTS.mka
Формат : Matroska
Версия формата : Version 2
Размер файла : 1,19 Гбайт
Продолжительность : 1 ч. 53 м.
Режим общего битрейта : Постоянный
Общий поток : 1507 Кбит/сек
Трек : Dark Shadows (2012) - Release for HDCLUB
Библиотека кодирования : libebml v1.2.2 + libmatroska v1.3.0
Аудио
Идентификатор : 1
Формат : DTS
Формат/Информация : Digital Theater Systems
Режим смешивания : Header stripping
Идентификатор кодека : A_DTS
Продолжительность : 1 ч. 53 м.
Вид битрейта : Постоянный
Битрейт : 1510 Кбит/сек
Каналы : 6 каналов
Расположение каналов : Front: L C R, Side: L R, LFE
Частота : 48,0 КГц
Битовая глубина : 16 бит
Метод сжатия : С потерями
Размер потока : 1,19 Гбайт
Заголовок : DTS 5.1 @ 1536 kbps
Язык : English
Default : Нет
Forced : Нет

Скриншоты






Последний раз редактировалось: Robot-IX (2012-09-16 18:35), всего редактировалось 3 раз(а)

Создавать темы 05-Сен-2012 04:44

[Профиль]  [ЛС] 

Robot-IX ®

Стаж: 5 лет 7 месяцев

Сообщений: 223

Симпатии: 9

благодарю...!

Создавать темы 05-Сен-2012 05:06

[Профиль]  [ЛС] 

Tony R.

Стаж: 8 лет 10 месяцев

Сообщений: 132

Симпатии: 20

Спасибо! Поглядим )
Это не чистый звук?
А то написано что диски только в начале октября появятся

Создавать темы 05-Сен-2012 08:24

[Профиль]  [ЛС] 

FNX

Стаж: 5 лет 2 месяца

Сообщений: 58

Симпатии: 13

Спасибо! Поглядим )
Это не чистый звук?
А то написано что диски только в начале октября появятся
Ответте Кто Нибуд

Создавать темы 05-Сен-2012 08:43

[Профиль]  [ЛС] 

Robot-IX ®

Стаж: 5 лет 7 месяцев

Сообщений: 223

Симпатии: 9

Спасибо! Поглядим )
Это не чистый звук?
А то написано что диски только в начале октября появятся
Ответте Кто Нибуд
Полное Дублирование , лицензия ! останетесь ДОВОЛЬНЫ.
и сама Картинка (изображение ) ay


Последний раз редактировалось: Robot-IX (2012-09-05 10:03), всего редактировалось 1 раз

Создавать темы 05-Сен-2012 09:04

[Профиль]  [ЛС] 

Robot-IX ®

Стаж: 5 лет 7 месяцев

Сообщений: 223

Симпатии: 9

лицуха DVD и BluRay 4 октября если верить кинопоиск.ru ?
а кинопоиск бывает и ошибается.... ab

Создавать темы 05-Сен-2012 10:58

[Профиль]  [ЛС] 

Tony R.

Стаж: 8 лет 10 месяцев

Сообщений: 132

Симпатии: 20

Отличное кино!
Бёртон не перестает удивлять )
Есть над чем призадуматься и где просто посмеяться
Отдельное спасибо за качество!

Создавать темы 05-Сен-2012 23:55

[Профиль]  [ЛС] 

FNX

Стаж: 5 лет 2 месяца

Сообщений: 58

Симпатии: 13

Спасибо! Поглядим )
Это не чистый звук?
А то написано что диски только в начале октября появятся
Ответте Кто Нибуд
Дубляжж ! как есть ! останетесь ДОВОЛЬНЫ.
и сама Картинка (изображение ) ay
Ну тогда качаем смело

Создавать темы 10-Сен-2012 01:58

[Профиль]  [ЛС] 

juggernaut

Стаж: 6 лет 7 месяцев

Сообщений: 24

Симпатии: 2

Спасибо за раздачу.Отличное качество.Вопрос только один: как мне англ.звуковую дорожку включить?

Создавать темы 10-Сен-2012 08:43

[Профиль]  [ЛС] 

FNX

Стаж: 5 лет 2 месяца

Сообщений: 58

Симпатии: 13

Спасибо за раздачу.Отличное качество.Вопрос только один: как мне англ.звуковую дорожку включить?
А У тя Какой Проигрывател?

Создавать темы 10-Сен-2012 12:36

[Профиль]  [ЛС] 

Тамила

Стаж: 5 лет 3 месяца

Сообщений: 3

в KM Player можно выбрать аудио канал. Над ползунком с длительностью фильма есть 2 кнопочи в левой части прям под самим изображением. Xvid и mp3 2ch. Нажимаете на mp3 2ch и выбираете канал левый или правый.

Создавать темы 16-Сен-2012 20:11

[Профиль]  [ЛС] 

FNX

Стаж: 5 лет 2 месяца

Сообщений: 58

Симпатии: 13

в KM Player можно выбрать аудио канал. Над ползунком с длительностью фильма есть 2 кнопочи в левой части прям под самим изображением. Xvid и mp3 2ch. Нажимаете на mp3 2ch и выбираете канал левый или правый.
А ещо ето функсия есть и в BigMusic&Movie Player

Создавать темы 20-Сен-2012 18:57

[Профиль]  [ЛС] 

annodaba

Стаж: 5 лет 5 месяцев

Сообщений: 18

Симпатии: 1

Да дайте скорости!!!! Уже 3 недели качается!!!!!!!!!!!!!!!

Создавать темы 13-Окт-2012 11:41

[Профиль]  [ЛС] 

PhleGmat1c

Стаж: 5 лет

Сообщений: 7

уважаемые дайте плиз скорости....!

Создавать темы 12-Фев-2013 23:06

[Профиль]  [ЛС] 

PhleGmat1c

Стаж: 5 лет

Сообщений: 7

заранее спасибо!

Создавать темы 12-Фев-2013 23:07

[Профиль]  [ЛС] 
Показать сообщения:    
Ответить на тему

Текущее время: 23-Ноя 10:47

Часовой пояс: UTC + 5



Вы не можете начинать темы
Вы не можете отвечать на сообщения
Вы не можете редактировать свои сообщения
Вы не можете удалять свои сообщения
Вы не можете голосовать в опросах
Вы не можете прикреплять файлы к сообщениям
Вы не можете скачивать файлы