Видеокурс "Рекламный дизайн в Photoshop. 20 проектов" [2011 г.]

Ответить на тему
 

Yоdjer ®

Стаж: 6 лет 7 месяцев

Сообщений: 13

Симпатии: 3

Видеокурс "Рекламный дизайн в Photoshop. 20 проектов"- Производитель: Мила Рогозян
Год выпуска: 2011
Язык: русский
Видео:TechSmith
Аудио: MPEG Audio
Видео кодек: TSCC-Описание:Этот курс позволит любому новичку быстро включиться и стать на путь дизайнера, который уже сможет начать конкурировать на рынке дизайна посредством своих знаний фотошопа.
Вы получите ответы на самые главные вопросы, а именно: "Как продать свои работы", "Как создать макеты полиграфии", "Как создать визитку", "Как начать зарабатывать с Фотошоп" и т.д. и т.п. Сегодня тысячи предпринимателей ломают голову кому и за сколько доверить разработку визитки для своей компании, как создать логотип, как нарисовать корпоративный календарь для своей фирмы. Полученные знания вы легко сможете превратить как в основной, так и дополнительный источник дохода, оказывая услуги по созданию и редактированию графики на современном рынке дизайна как в Интернете так и в оффлайне.

Media info

General
Complete name : D:\Anime\Videokurs_Reklamnyj-Dizajn-V-Photoshop_20-Proektov_2011\1 визитка\1.2 создание макета.avi
Format : AVI
Format/Info : Audio Video Interleave
File size : 31.6 MiB
Duration : 16mn 28s
Overall bit rate : 268 Kbps
Video
ID : 0
Format : TechSmith
Codec ID : tscc
Codec ID/Info : TechSmith Screen Capture
Duration : 16mn 28s
Bit rate : 87.8 Kbps
Width : 1 100 pixels
Height : 768 pixels
Display aspect ratio : 1.432
Frame rate : 5.000 fps
Bits/(Pixel*Frame) : 0.021
Stream size : 10.3 MiB (33%)
Audio
ID : 1
Format : MPEG Audio
Format version : Version 2
Format profile : Layer 3
Codec ID : 55
Codec ID/Hint : MP3
Duration : 16mn 28s
Bit rate mode : Constant
Bit rate : 96.0 Kbps
Channel(s) : 1 channel
Sampling rate : 22.05 KHz
Compression mode : Lossy
Stream size : 11.3 MiB (36%)
Alignment : Aligned on interleaves
Interleave, duration : 26 ms (0.13 video frame)
Interleave, preload duration : 1462 ms
Writing library : LAME3.97 (beta)

Скриншоты





Чему научат!

Мастерская красотыв раздаче имеются материалы, а так же исходные файлы (.psd) te


Последний раз редактировалось: Yоdjer (2012-09-10 08:30), всего редактировалось 4 раз(а)

Создавать темы 05-Сен-2012 23:48

[Профиль]  [ЛС] 

Whitejin

Стаж: 6 лет 6 месяцев

Сообщений: 175

Симпатии: 11

не понятно...Полного источника не было: Никогда, можно будет скачать?

Создавать темы 06-Сен-2012 09:29

[Профиль]  [ЛС] 

Whitejin

Стаж: 6 лет 6 месяцев

Сообщений: 175

Симпатии: 11

раздача только по ночам чтоли?

Создавать темы 07-Сен-2012 10:22

[Профиль]  [ЛС] 

Whitejin

Стаж: 6 лет 6 месяцев

Сообщений: 175

Симпатии: 11

не знал, значит буду качать ночью, спасибо.

Создавать темы 07-Сен-2012 10:39

[Профиль]  [ЛС] 

sanya

Стаж: 6 лет 4 месяца

Сообщений: 28

Симпатии: 1

Дайте газу :)

Создавать темы 10-Сен-2012 16:24

[Профиль]  [ЛС] 

sotka

Стаж: 4 года 5 месяцев

Сообщений: 41

Симпатии: 1

Спасибо.

Создавать темы 06-Дек-2014 01:48

[Профиль]  [ЛС] 
Показать сообщения:    
Ответить на тему

Текущее время: 23-Окт 22:17

Часовой пояс: UTC + 5



Вы не можете начинать темы
Вы не можете отвечать на сообщения
Вы не можете редактировать свои сообщения
Вы не можете удалять свои сообщения
Вы не можете голосовать в опросах
Вы не можете прикреплять файлы к сообщениям
Вы не можете скачивать файлы