От Винта (Ольга Лопато) [2012 г., мультфильм, комедия, приключения, DVDRip]

Ответить на тему
 

antanyletun ®

Стаж: 5 лет 7 месяцев

Сообщений: 74

Симпатии: 3

От Винта Год выпуска: 2012
Страна:
Жанр: мультфильм, комедия, приключения
Продолжительность: 01:23:26
Перевод: Не требуется
Режиссер: Ольга Лопато
Андрей Мерзликин,Валентин Гафт,Антонина Березка,Алексей Франдетти,Александр Головин,Анфиса Чехова За несколько недель до грандиозного авиашоу юный истребитель СУ-27 по имени Витязь поступает в ученики к самолетам-корифеям, которые берутся подготовить его к соревнованию. Но Витязь забывает о занятиях, когда по уши влюбляется в очаровательный легкий самолет Молнию, не подозревая, что она — помощница жестокого и злого истребителя Грома, который мечтает расправиться с Витязем. Сможет ли Витязь завоевать любовь Молнии? Успеет ли разрушить коварные планы Грома? И главное — станет ли Витязь победителем авиашоу? Доп. информация:
Media Info:
E:\с торрента\мультфильмы\Ot.vinta.2012.DVDRip.avi
General
Complete name : E:\с торрента\мультфильмы\Ot.vinta.2012.DVDRip.avi
Format : AVI
Format/Info : Audio Video Interleave
File size : 701 MiB
Duration : 1h 23mn
Overall bit rate : 1 174 Kbps
Writing application : VirtualDubMod 1.5.10.3 | www.virtualdub-fr.org || (build 2550/release)
Writing library : VirtualDubMod build 2550/release
Video #0
ID : 0
Format : MPEG-4 Visual
Format profile : Advanced [email protected]
Format settings, BVOP : 2
Format settings, QPel : No
Format settings, GMC : No warppoints
Format settings, Matrix : Default (MPEG)
Muxing mode : Packed bitstream
Codec ID : XVID
Codec ID/Hint : XviD
Duration : 1h 23mn
Bit rate : 1 036 Kbps
Width : 640 pixels
Height : 272 pixels
Display aspect ratio : 2.35:1
Frame rate : 25.000 fps
Color space : YUV
Chroma subsampling : 4:2:0
Bit depth : 8 bits
Scan type : Progressive
Compression mode : Lossy
Bits/(Pixel*Frame) : 0.238
Stream size : 619 MiB (88%)
Writing library : XviD 72
Audio #1
ID : 1
Format : MPEG Audio
Format version : Version 1
Format profile : Layer 3
Codec ID : 55
Codec ID/Hint : MP3
Duration : 1h 23mn
Bit rate mode : Constant
Bit rate : 128 Kbps
Channel(s) : 2 channels
Sampling rate : 48.0 KHz
Compression mode : Lossy
Stream size : 76.4 MiB (11%)
Alignment : Aligned on interleaves
Interleave, duration : 40 ms (1.00 video frame)
Interleave, preload duration : 504 ms
Writing library : LAME3.99r
Encoding settings : -m s -V 4 -q 2 -lowpass 17 -b 128
Качество: DVDRip
Формат: AVI
Видео кодек: XviD
Аудио кодек: MP3
Видео: 640x272 (2.35:1), 25 fps, XviD MPEG-4 ~1036 kbps avg, 0.24 bit/pixel
Аудио: 48 kHz, MPEG Layer 3, 2 ch, ~128.00 kbps avg

Скриншоты




Создавать темы 06-Сен-2012 23:22

[Профиль]  [ЛС] 

toyir

Стаж: 5 лет 3 месяца

Сообщений: 70

дайте скорст жмите газ

Создавать темы 12-Сен-2012 19:47

[Профиль]  [ЛС] 

antanyletun ®

Стаж: 5 лет 7 месяцев

Сообщений: 74

Симпатии: 3

канал открыт на полную...

Создавать темы 13-Сен-2012 02:03

[Профиль]  [ЛС] 

scorpion77

Стаж: 5 лет 11 месяцев

Сообщений: 95

Симпатии: 5

Спасибо Большое pc

Создавать темы 13-Сен-2012 08:49

[Профиль]  [ЛС] 

30stm

Стаж: 7 лет

Сообщений: 49

Скорист пожалуста

Создавать темы 11-Окт-2012 06:43

[Профиль]  [ЛС] 

antanyletun ®

Стаж: 5 лет 7 месяцев

Сообщений: 74

Симпатии: 3

Скорист пожалуста
канал открыт на полную 3 Мб/с

Создавать темы 25-Окт-2012 20:39

[Профиль]  [ЛС] 

antanyletun ®

Стаж: 5 лет 7 месяцев

Сообщений: 74

Симпатии: 3

Скорист пожалуста
канал открыт на полную 3 Мб/с

Создавать темы 25-Окт-2012 20:39

[Профиль]  [ЛС] 

greshnik1995

Стаж: 5 лет 3 месяца

Сообщений: 23

дайте скорости пожалуйста ! скорость 20 кб/с второй день качаю

Создавать темы 29-Окт-2012 10:52

[Профиль]  [ЛС] 

kamoladdin

Стаж: 6 лет 7 месяцев

Сообщений: 41

Симпатии: 1

скорость дайте плиз

Создавать темы 06-Ноя-2012 21:35

[Профиль]  [ЛС] 

DJ-RaYa

Стаж: 4 года 6 месяцев

Сообщений: 8

Скорость пож.

Создавать темы 25-Июн-2013 11:56

[Профиль]  [ЛС] 
Показать сообщения:    
Ответить на тему

Текущее время: 15-Дек 17:20

Часовой пояс: UTC + 5



Вы не можете начинать темы
Вы не можете отвечать на сообщения
Вы не можете редактировать свои сообщения
Вы не можете удалять свои сообщения
Вы не можете голосовать в опросах
Вы не можете прикреплять файлы к сообщениям
Вы не можете скачивать файлы