Люди в черном 3 / Men in Black 3 (Барри Зонненфельд) [2012 г., фантастика, боевик, комедия, BDRip 720p] DUB + Original (ENG) + sub (rus, eng)

Страницы :  1, 2  След.

Ответить на тему
 

Robot-IX ®

Стаж: 5 лет 6 месяцев

Сообщений: 223

Симпатии: 9

Люди в черном 3 / Men in Black 3
Год выпуска: 2012
Страна: США
Жанр: фантастика, боевик, комедия
Продолжительность: 01:45:50
Перевод: Профессиональный (дублированный) + Оригинал
Режиссер: Барри Зонненфельд
В ролях: Уилл Смит (Agent J), Джош Бролин (Young Agent K), Томми Ли Джонс (Agent K), Джемейн Клемент (Boris The Animal), Майкл Стулбарг (Griffin), Эмма Томпсон (Agent O), Элис Ив (Young Agent O), Майк Колтер (Colonel), Билл Хэйдер (Andy Warhol), Майкл Чернус (Jeffrey Price), Николь Шерзингер (Boris's Girlfriend), Дэвид Раш (Agent X)
Описание: Агент Джей узнает, что никакого защитного галактического щита, способного отразить иноземный удар, не существует. Агент Кей не построил его, потому что был убит в 1969 году. Агент Джей должен совершить путешествие во времени, чтобы спасти Землю и жизнь напарника.
Доп.информация:
бюджет: $225 000 000
сборы в мире: $623 862 476
 
Качество: BDRip-AVC
Исходник: Blu-ray CEE 1080p AVC DD5.1 [HDCLUB]
Формат: MKV
Видео кодек: AVC/H.264
Аудио кодек: AC3/DTS
Видео: 1280x694 (1.844); 7200 Kbps; 23.976 fps
Аудио Ru #1: AC3, 6ch, 48 kHz, 640 kbps - (дубляж)
Аудио Eng #2: DTS, 6ch, 48 kHz, 1536 kbps, 16-bit - (оригинал)
Субтитры Ru1 : SRT1/есть.
Субтитры Eng2 : SRT2/есть.
Меню-Главы: 16/есть
Размер файла: 6,91

MI

General
Unique ID : 207565061664548056458380731426113304758 (0x9C2793A6FDBFD2CFAFA90862D037B8B6)
Complete name : D:\Torent\Ludi v chornom_3.2012.720p.BluRay.Rus.Eng.HDCLUB.mkv
Format : Matroska
Format version : Version 4 / Version 2
File size : 6.91 GiB
Duration : 1h 45mn
Overall bit rate : 9 351 Kbps
Movie name : Men in Black 3 (2012) - Release for HDCLUB
Encoded date : UTC 2013-02-04 13:15:43
Writing application : mkvmerge v6.0.0 ('Coming Up For Air') built on Jan 20 2013 09:52:00
Writing library : libebml v1.3.0 + libmatroska v1.4.0
Attachment : Yes
Video
ID : 1
Format : AVC
Format/Info : Advanced Video Codec
Format profile : [email protected]
Format settings, CABAC : Yes
Format settings, ReFrames : 9 frames
Codec ID : V_MPEG4/ISO/AVC
Duration : 1h 45mn
Bit rate : 7 200 Kbps
Width : 1 280 pixels
Height : 694 pixels
Display aspect ratio : 16:9
Frame rate : 23.976 fps
Color space : YUV
Chroma subsampling : 4:2:0
Bit depth : 8 bits
Scan type : Progressive
Bits/(Pixel*Frame) : 0.338
Stream size : 5.19 GiB (75%)
Title : Release for HDCLUB
Writing library : x264 core 125 r2208 d9d2288
Encoding settings : cabac=1 / ref=9 / deblock=1:-3:-3 / analyse=0x3:0x113 / me=umh / subme=10 / psy=1 / psy_rd=1.10:0.05 / mixed_ref=1 / me_range=48 / chroma_me=1 / trellis=2 / 8x8dct=1 / cqm=0 / deadzone=21,11 / fast_pskip=0 / chroma_qp_offset=-3 / threads=18 / lookahead_threads=3 / sliced_threads=0 / nr=0 / decimate=0 / interlaced=0 / bluray_compat=0 / constrained_intra=0 / bframes=8 / b_pyramid=2 / b_adapt=2 / b_bias=0 / direct=3 / weightb=1 / open_gop=0 / weightp=2 / keyint=240 / keyint_min=24 / scenecut=40 / intra_refresh=0 / rc_lookahead=240 / rc=2pass / mbtree=1 / bitrate=7200 / ratetol=1.0 / qcomp=0.70 / qpmin=0 / qpmax=69 / qpstep=4 / cplxblur=20.0 / qblur=0.5 / ip_ratio=1.20 / aq=1:0.95
Language : English
Default : Yes
Forced : No
Audio #1
ID : 2
Format : AC-3
Format/Info : Audio Coding 3
Mode extension : CM (complete main)
Codec ID : A_AC3
Duration : 1h 45mn
Bit rate mode : Constant
Bit rate : 640 Kbps
Channel(s) : 6 channels
Channel positions : Front: L C R, Side: L R, LFE
Sampling rate : 48.0 KHz
Bit depth : 16 bits
Compression mode : Lossy
Stream size : 484 MiB (7%)
Title : AC3 5.1 @ 640 kbps - Дублированный, Blu-ray CEE
Language : Russian
Default : Yes
Forced : No
Audio #2
ID : 3
Format : DTS
Format/Info : Digital Theater Systems
Codec ID : A_DTS
Duration : 1h 45mn
Bit rate mode : Constant
Bit rate : 1 510 Kbps
Channel(s) : 6 channels
Channel positions : Front: L C R, Side: L R, LFE
Sampling rate : 48.0 KHz
Bit depth : 16 bits
Compression mode : Lossy
Delay relative to video : 11ms
Stream size : 1.12 GiB (16%)
Title : DTS 5.1 @ 1536 kbps
Language : English
Default : No
Forced : No
Text #1
ID : 4
Format : UTF-8
Codec ID : S_TEXT/UTF8
Codec ID/Info : UTF-8 Plain Text
Language : Russian
Default : No
Forced : No
Text #2
ID : 5
Format : UTF-8
Codec ID : S_TEXT/UTF8
Codec ID/Info : UTF-8 Plain Text
Language : English
Default : No
Forced : No
Menu
00:00:00.000 : en:Chapter 1
00:06:09.577 : en:Chapter 2
00:11:27.478 : en:Chapter 3
00:16:58.809 : en:Chapter 4
00:22:36.229 : en:Chapter 5
00:31:24.632 : en:Chapter 6
00:37:36.420 : en:Chapter 7
00:42:43.018 : en:Chapter 8
00:48:55.849 : en:Chapter 9
00:53:58.234 : en:Chapter 10
00:59:27.772 : en:Chapter 11
01:05:52.782 : en:Chapter 12
01:11:56.312 : en:Chapter 13
01:19:50.619 : en:Chapter 14
01:27:57.063 : en:Chapter 15
01:35:30.683 : en:Chapter 16

Скриншоты






Последний раз редактировалось: Robot-IX (2014-03-07 15:44), всего редактировалось 3 раз(а)

Создавать темы 09-Сен-2012 02:06

[Профиль]  [ЛС] 

Топик был перенесен из форума HD-AVC в форум Зарубежное кино

ziyod

Создавать темы 09-Сен-2012 08:32

 

a17s5g8

Стаж: 5 лет 4 месяца

Сообщений: 30

Вот это подгон:) Автору чашечку чая, за счет заведения^^

Создавать темы 09-Сен-2012 09:43

[Профиль]  [ЛС] 

DMiTRY

Стаж: 6 лет 5 месяцев

Сообщений: 649

Симпатии: 28

уважаемые пользователи трекера,найдутся ли ещё люди,которые будут постоянно выкладывать релизы, в основном фильмы в HD,REMUX,BLU-RAY,BD-RIP ? если есть такие,отпишитесь,будем развивать раздел HD и трекер в частности.

Создавать темы 09-Сен-2012 13:53

[Профиль]  [ЛС] 

Tony R.

Стаж: 8 лет 9 месяцев

Сообщений: 132

Симпатии: 20

Хорошая мысль! И начать надо с Тёмного рыцаря ap

Создавать темы 09-Сен-2012 15:59

[Профиль]  [ЛС] 

Robot-IX ®

Стаж: 5 лет 6 месяцев

Сообщений: 223

Симпатии: 9

Народ, спасс ! будем радовать....

Создавать темы 09-Сен-2012 22:11

[Профиль]  [ЛС] 

Tony R.

Стаж: 8 лет 9 месяцев

Сообщений: 132

Симпатии: 20

Если честно, то после того как приобрели full hd телевизор, то киношки в разрешении 720 и ниже совсем нет желания качать
Зажрался bm

Создавать темы 09-Сен-2012 22:30

[Профиль]  [ЛС] 

Robot-IX ®

Стаж: 5 лет 6 месяцев

Сообщений: 223

Симпатии: 9

не стесняйтесь... жмите кнопочку: позвать скачавших!

Создавать темы 11-Сен-2012 18:57

[Профиль]  [ЛС] 

a17s5g8

Стаж: 5 лет 4 месяца

Сообщений: 30

-Держи гироскоп на нулевом гейне и балансе. Вращение по осям осуществляется отклонением центральной стойки.
-Я (айааййй) ни (айааа )черта (айааййй) не понял!

Создавать темы 16-Сен-2012 12:33

[Профиль]  [ЛС] 

Robot-IX ®

Стаж: 5 лет 6 месяцев

Сообщений: 223

Симпатии: 9

a17s5g8,
-Держи гироскоп на нулевом гейне и балансе. Вращение по осям осуществляется отклонением центральной стойки.
-Я (айааййй) ни (айааа )черта (айааййй) не понял!
смени аватарку к мужскому полу ! и что это ещё за петрушка...!ты сам то понял что тебе надо дисарентированный ! bz

Создавать темы 20-Сен-2012 10:38

[Профиль]  [ЛС] 

a17s5g8

Стаж: 5 лет 4 месяца

Сообщений: 30

Robot-IX, зато вы у нас с полом определились, жаль только, что непонятный набор букв не дает понять к какому. Ах да, я всегда знаю, что мне надо и всегда делаю, то что мне надо.
ЗЫ
"Смени аватарку к мужскому полу". русский речь? Не, не слышал.


Последний раз редактировалось: a17s5g8 (2014-03-18 20:52), всего редактировалось 1 раз

Создавать темы 20-Сен-2012 20:32

[Профиль]  [ЛС] 

a17s5g8

Стаж: 5 лет 4 месяца

Сообщений: 30

Вроде бы взрослый человек, а развели дет. сад какой-то.


Последний раз редактировалось: a17s5g8 (2014-03-18 20:53), всего редактировалось 1 раз

Создавать темы 20-Сен-2012 20:32

[Профиль]  [ЛС] 

Robot-IX ®

Стаж: 5 лет 6 месяцев

Сообщений: 223

Симпатии: 9

Вроде бы взрослый человек, а развели дет. сад какой то.
закончим разговоры..! чтобы скоментами в моих темах вас не было

Создавать темы 20-Сен-2012 21:13

[Профиль]  [ЛС] 

a17s5g8

Стаж: 5 лет 4 месяца

Сообщений: 30

закончим разговоры..! чтобы скоментами в моих темах тебя не было ты понял!
Пфффф, больно надо мне тратить свое время на комментирование твоих релизов.

Создавать темы 20-Сен-2012 21:43

[Профиль]  [ЛС] 

Robot-IX ®

Стаж: 5 лет 6 месяцев

Сообщений: 223

Симпатии: 9

Всем кто нажал кнопку благодарности взаимно СПАСИБО !

Создавать темы 24-Сен-2012 23:23

[Профиль]  [ЛС] 
Показать сообщения:    
Ответить на тему

Текущее время: 23-Окт 13:12

Часовой пояс: UTC + 5



Вы не можете начинать темы
Вы не можете отвечать на сообщения
Вы не можете редактировать свои сообщения
Вы не можете удалять свои сообщения
Вы не можете голосовать в опросах
Вы не можете прикреплять файлы к сообщениям
Вы не можете скачивать файлы