WWE - The True Story of Wrestlemania [2011 г., Реслинг, DVDRip]

Ответить на тему
 

Спартанец ®

Стаж: 5 лет 6 месяцев

Сообщений: 361

- -- Год выпуска: 2011
Вид спорта: Реслинг
Участники: WWF и WWE звезды
Продолжительность: 02:01:13+02:42:58+02:12:51
Комментарий: Профессиональный (многоголосый, закадровый)
Язык комментариев: Английский
Описание: Wrestlemania - это самое ожидаемое событие в жизни каждого из супер-звезд вселенной WWE. За свою историю, начиная от самой 1-ой рестлмании, состоялось множество интереснейших боев и событий. И в этом релизе, создатели вселенной WWE, поделятся с нами тайнами закулисной жизни бойцов, о том как делалось каждое шоу и покажут самые интереснейшие бои каждой из прошедших Рестлманий.
Качество: DVDRip
Видео: MPEG4, Video, (H264), 704x400, 29.97fps
Аудио: MPEG4, Audio, 48000Hz, stereo, 1536kbps

Диск 1

Видео: MPEG4, Video, (H264), 704x400, 29.97fps, 1 324 Kbps
Аудио: MPEG4, Audio, 48000Hz, stereo, 1536kbps, 192 Kbps

МедиаИнфо

General
Complete name : D:\WWE - The True Story of Wrestlemania\WWE.The.True.Story.of.Wrestlemania.2011.Disc1.DVDRip.x264-RUDOS.mp4
Format : MPEG-4
Format profile : Base Media
Codec ID : isom
File size : 1.29 GiB
Duration : 2h 1mn
Overall bit rate mode : Variable
Overall bit rate : 1 518 Kbps
Encoded date : UTC 2011-03-15 15:58:26
Tagged date : UTC 2011-03-15 15:58:26
Writing application : Yamb 2.1.0.0 [http://yamb.unite-video.com]
Video
ID : 1
Format : AVC
Format/Info : Advanced Video Codec
Format profile : [email protected]
Format settings, CABAC : Yes
Format settings, ReFrames : 4 frames
Codec ID : avc1
Codec ID/Info : Advanced Video Coding
Duration : 2h 1mn
Bit rate : 1 324 Kbps
Maximum bit rate : 2 332 Kbps
Width : 704 pixels
Height : 400 pixels
Display aspect ratio : 16:9
Frame rate mode : Constant
Frame rate : 29.970 fps
Color space : YUV
Chroma subsampling : 4:2:0
Bit depth : 8 bits
Scan type : Progressive
Bits/(Pixel*Frame) : 0.157
Stream size : 1.12 GiB (87%)
Writing library : x264 core 88 r1471 1144615
Encoding settings : cabac=1 / ref=5 / deblock=1:0:0 / analyse=0x3:0x113 / me=umh / subme=9 / psy=1 / psy_rd=1.00:0.00 / mixed_ref=1 / me_range=16 / chroma_me=1 / trellis=1 / 8x8dct=1 / cqm=0 / deadzone=21,11 / fast_pskip=1 / chroma_qp_offset=-2 / threads=12 / sliced_threads=0 / nr=0 / decimate=1 / mbaff=0 / constrained_intra=0 / bframes=3 / b_pyramid=1 / b_adapt=2 / b_bias=0 / direct=3 / wpredb=1 / wpredp=2 / keyint=300 / keyint_min=30 / scenecut=40 / intra_refresh=0 / rc_lookahead=40 / rc=crf / mbtree=1 / crf=16.0 / qcomp=0.60 / qpmin=10 / qpmax=51 / qpstep=4 / vbv_maxrate=1500 / vbv_bufsize=1450 / ip_ratio=1.40 / aq=1:1.00
Encoded date : UTC 2011-03-15 15:58:26
Tagged date : UTC 2011-03-15 15:58:55
Audio
ID : 2
Format : AAC
Format/Info : Advanced Audio Codec
Format profile : LC
Codec ID : 40
Duration : 2h 1mn
Bit rate mode : Variable
Bit rate : 192 Kbps
Maximum bit rate : 209 Kbps
Channel(s) : 2 channels
Channel positions : Front: L R
Sampling rate : 48.0 KHz
Compression mode : Lossy
Stream size : 164 MiB (12%)
Encoded date : UTC 2011-03-15 15:58:40
Tagged date : UTC 2011-03-15 15:58:55

Диск 2

Видео: MPEG4, Video, (H264), 704x400, 29.97fps, 1 443 Kbps
Аудио: MPEG4, Audio, 48000Hz, stereo, 1536kbps, 192 Kbps

МедиаИнфо

General
Complete name : D:\WWE - The True Story of Wrestlemania\WWE.The.True.Story.of.Wrestlemania.2011.Disc2.DVDRip.x264-RUDOS.mp4
Format : MPEG-4
Format profile : Base Media
Codec ID : isom
File size : 1.52 GiB
Duration : 2h 12mn
Overall bit rate mode : Variable
Overall bit rate : 1 637 Kbps
Encoded date : UTC 2011-03-15 16:03:19
Tagged date : UTC 2011-03-15 16:03:19
Video
ID : 2
Format : AVC
Format/Info : Advanced Video Codec
Format profile : [email protected]
Format settings, CABAC : Yes
Format settings, ReFrames : 4 frames
Codec ID : avc1
Codec ID/Info : Advanced Video Coding
Duration : 2h 12mn
Bit rate : 1 443 Kbps
Maximum bit rate : 2 243 Kbps
Width : 704 pixels
Height : 400 pixels
Display aspect ratio : 16:9
Frame rate mode : Constant
Frame rate : 29.970 fps
Color space : YUV
Chroma subsampling : 4:2:0
Bit depth : 8 bits
Scan type : Progressive
Bits/(Pixel*Frame) : 0.171
Stream size : 1.34 GiB (88%)
Writing library : x264 core 88 r1471 1144615
Encoding settings : cabac=1 / ref=5 / deblock=1:0:0 / analyse=0x3:0x113 / me=umh / subme=9 / psy=1 / psy_rd=1.00:0.00 / mixed_ref=1 / me_range=16 / chroma_me=1 / trellis=1 / 8x8dct=1 / cqm=0 / deadzone=21,11 / fast_pskip=1 / chroma_qp_offset=-2 / threads=12 / sliced_threads=0 / nr=0 / decimate=1 / mbaff=0 / constrained_intra=0 / bframes=3 / b_pyramid=1 / b_adapt=2 / b_bias=0 / direct=3 / wpredb=1 / wpredp=2 / keyint=300 / keyint_min=30 / scenecut=40 / intra_refresh=0 / rc_lookahead=40 / rc=crf / mbtree=1 / crf=16.0 / qcomp=0.60 / qpmin=10 / qpmax=51 / qpstep=4 / vbv_maxrate=1500 / vbv_bufsize=1450 / ip_ratio=1.40 / aq=1:1.00
Encoded date : UTC 2011-03-15 16:03:35
Tagged date : UTC 2011-03-15 16:03:53
Audio
ID : 1
Format : AAC
Format/Info : Advanced Audio Codec
Format profile : LC
Codec ID : 40
Duration : 2h 12mn
Bit rate mode : Variable
Bit rate : 192 Kbps
Maximum bit rate : 220 Kbps
Channel(s) : 2 channels
Channel positions : Front: L R
Sampling rate : 48.0 KHz
Compression mode : Lossy
Stream size : 181 MiB (12%)
Encoded date : UTC 2011-03-15 16:03:19
Tagged date : UTC 2011-03-15 16:03:53

Диск 3

Видео: MPEG4, Video, (H264), 704x400, 29.97fps, 1 451 Kbps
Аудио: MPEG4, Audio, 48000Hz, stereo, 1536kbps, 192 Kbps

МедиаИнфо

General
Complete name : D:\WWE - The True Story of Wrestlemania\WWE.The.True.Story.of.Wrestlemania.2011.Disc3.DVDRip.x264-RUDOS.mp4
Format : MPEG-4
Format profile : Base Media
Codec ID : isom
File size : 1.87 GiB
Duration : 2h 42mn
Overall bit rate mode : Variable
Overall bit rate : 1 645 Kbps
Encoded date : UTC 2011-03-15 16:11:03
Tagged date : UTC 2011-03-15 16:11:03
Video
ID : 2
Format : AVC
Format/Info : Advanced Video Codec
Format profile : [email protected]
Format settings, CABAC : Yes
Format settings, ReFrames : 4 frames
Codec ID : avc1
Codec ID/Info : Advanced Video Coding
Duration : 2h 42mn
Bit rate : 1 451 Kbps
Maximum bit rate : 2 341 Kbps
Width : 704 pixels
Height : 400 pixels
Display aspect ratio : 16:9
Frame rate mode : Constant
Frame rate : 29.970 fps
Color space : YUV
Chroma subsampling : 4:2:0
Bit depth : 8 bits
Scan type : Progressive
Bits/(Pixel*Frame) : 0.172
Stream size : 1.65 GiB (88%)
Writing library : x264 core 88 r1471 1144615
Encoding settings : cabac=1 / ref=5 / deblock=1:0:0 / analyse=0x3:0x113 / me=umh / subme=9 / psy=1 / psy_rd=1.00:0.00 / mixed_ref=1 / me_range=16 / chroma_me=1 / trellis=1 / 8x8dct=1 / cqm=0 / deadzone=21,11 / fast_pskip=1 / chroma_qp_offset=-2 / threads=12 / sliced_threads=0 / nr=0 / decimate=1 / mbaff=0 / constrained_intra=0 / bframes=3 / b_pyramid=1 / b_adapt=2 / b_bias=0 / direct=3 / wpredb=1 / wpredp=2 / keyint=300 / keyint_min=30 / scenecut=40 / intra_refresh=0 / rc_lookahead=40 / rc=crf / mbtree=1 / crf=16.0 / qcomp=0.60 / qpmin=10 / qpmax=51 / qpstep=4 / vbv_maxrate=1500 / vbv_bufsize=1450 / ip_ratio=1.40 / aq=1:1.00
Encoded date : UTC 2011-03-15 16:11:19
Tagged date : UTC 2011-03-15 16:11:44
Audio
ID : 1
Format : AAC
Format/Info : Advanced Audio Codec
Format profile : LC
Codec ID : 40
Duration : 2h 42mn
Bit rate mode : Variable
Bit rate : 192 Kbps
Maximum bit rate : 201 Kbps
Channel(s) : 2 channels
Channel positions : Front: L R
Sampling rate : 48.0 KHz
Compression mode : Lossy
Stream size : 221 MiB (12%)
Encoded date : UTC 2011-03-15 16:11:03
Tagged date : UTC 2011-03-15 16:11:44

Кард

Documentary Feature:
The Beginning
WrestleMania is Born
New York, Chicago, Los Angeles
Bigger, Better, Badder !
Influencing a Generation
Battle of the Billionaires
Atlantic City Hotspot
O' Canada
Hulkamania is WrestleMania
Emotionally Charged
Dream Match...Not a Reality
World's Largest Toga Party
Back on Broadway
Axxess
Hall of Fame
New Generation
Baddest Man on the Planet
Celebrities
To the New Millennium
Seismic Shift
Mr. WrestleMania
The Crowd Effect
Living Out a Dream
The Music of Mania
Citrus Bowl
Preparing for the Moment
Greatest Match Ever?
Undefeated
The Legacy
Disc 2
Hulk Hogan & Mr. T vs. "Rowdy" Roddy Piper & Mr. Wonderful Paul Orndorff
WrestleMania, 31st March, 1985
WWE Intercontinental Championship Match
Randy 'Macho Man' Savage vs. Ricky 'the Dragon' Steamboat
WrestleMania III, 29th March, 1987
WWE Championship Match
Hulk Hogan vs. Andre the Giant
WrestleMania III, 29th March, 1987
Retirement Match
The Ultimate Warrior vs. Randy 'Macho Man' Savage
WrestleMania VII, 24th March, 1991
Ladder Match for the WWE Intercontinental Championship
Razor Ramon vs. Shawn Michaels
WrestleMania X, 20th March, 1994
Disc 3
WWE Championship Match
Shawn Michaels vs. Stone Cold Steve Austin
WrestleMania XIV, 29th March, 1998
WWE Tag Team Championship – Triangle Ladder Match
The Hardy Boyz vs. The Dudley Boyz vs. Edge / Christian
WrestleMania 2000, 2nd April, 2000
Street Fight
Shane McMahon vs. Vince McMahon
WrestleMania X-Seven, 1st April, 2001
The Rock vs. Hollywood Hulk Hogan
WrestleMania X-8, 17th March, 2002
WWE Championship Match
Kurt Angle vs. Brock Lesnar
WrestleMania XIX, 30th March, 2003
WWE Championship Match
John Cena vs. Triple H
WrestleMania 22, 2nd April, 2006

Скриншоты



Последний раз редактировалось: Спартанец (2013-08-27 08:17), всего редактировалось 1 раз

Создавать темы 09-Сен-2012 11:47

[Профиль]  [ЛС] 

Спартанец ®

Стаж: 5 лет 6 месяцев

Сообщений: 361

Вот парни, пока не уехал, самый золотой и винтажный релиз ))

Создавать темы 09-Сен-2012 11:50

[Профиль]  [ЛС] 

Ala

Стаж: 6 лет 4 месяца

Сообщений: 45

Спартанец, Круто молодец :))

Создавать темы 09-Сен-2012 12:30

[Профиль]  [ЛС] 

slap_nuts

Стаж: 7 лет 2 месяца

Сообщений: 85

Легенда Спартанец, )))

Создавать темы 09-Сен-2012 20:10

[Профиль]  [ЛС] 

McFLY

Стаж: 5 лет 5 месяцев

Сообщений: 658

Симпатии: 22

Во истину ВЕЛИКИЙ релиз!!! Завтра вечерком начну сливать.
Спартанец, "Ночь чемпионов" кажется 19 сентября. Значит по идее должны успеть посмотреть :)

Создавать темы 09-Сен-2012 21:17

[Профиль]  [ЛС] 

Спартанец ®

Стаж: 5 лет 6 месяцев

Сообщений: 361

На здоровье парни ))
Да, ночь чемпионов раздам до конца месяца )

Создавать темы 09-Сен-2012 21:52

[Профиль]  [ЛС] 

NodirAgenT

Стаж: 6 лет 4 месяца

Сообщений: 204

Новости Даби ДАби
И че терь Шаймус Бес Броукик
Разозлит Ли Панк Сину Как леснар перед Екстрим Рулсс (хех)
Батиста Сегодня Дебютирует в MMA
Панк Ровно 4 года назад Стал HW Чемпом Даби даби
(какой Пуш Будет Для (FEED ME MORE )

_________________
Подпись отключена за нарушение правил форума

Создавать темы 10-Сен-2012 21:42

[Профиль]  [ЛС] 

NodirAgenT

Стаж: 6 лет 4 месяца

Сообщений: 204

Епт Смарите Новости
Night of Champions 2012 Tag Team Titles Match
Kofi Kingston & R-Truth vs. Daniel Bryan & Kane
ПСИХ+ПСИХ(Рассисты) Против 2 Нигиров
Pre-show Night of Champions 2012 -Battle Royal for US title match vs Antonio Cesaro

_________________
Подпись отключена за нарушение правил форума

Создавать темы 11-Сен-2012 18:37

[Профиль]  [ЛС] 

Vovo4ka

Стаж: 6 лет

Сообщений: 160

Симпатии: 11

Спасибо Спартанец. Супер

Создавать темы 12-Сен-2012 00:32

[Профиль]  [ЛС] 

CM Punk

Стаж: 5 лет 7 месяцев

Сообщений: 24

Найт оф зе чемпионс я думаю пора панку потерять титул,он офигел в конец,хоть я его фан(но сейчас он мне не нравится)

Создавать темы 12-Сен-2012 22:42

[Профиль]  [ЛС] 

McFLY

Стаж: 5 лет 5 месяцев

Сообщений: 658

Симпатии: 22

CM Punk, согласен. Ну хотя всё к этому и идёт :) Правда жаль что такой интересный персонаж как-будто специально превращают в безмозглого затупка требующего УВАЖЕНИЯ.

Создавать темы 12-Сен-2012 22:48

[Профиль]  [ЛС] 

Спартанец ®

Стаж: 5 лет 6 месяцев

Сообщений: 361

ссучился

Создавать темы 12-Сен-2012 23:20

[Профиль]  [ЛС] 

CM Punk

Стаж: 5 лет 7 месяцев

Сообщений: 24

McFLY, Спартанец, именно

Создавать темы 12-Сен-2012 23:30

[Профиль]  [ЛС] 
Показать сообщения:    
Ответить на тему

Текущее время: 17-Авг 08:56

Часовой пояс: UTC + 5



Вы не можете начинать темы
Вы не можете отвечать на сообщения
Вы не можете редактировать свои сообщения
Вы не можете удалять свои сообщения
Вы не можете голосовать в опросах
Вы не можете прикреплять файлы к сообщениям
Вы не можете скачивать файлы