За Двумя Зайцами (Виктор Иванов) [1963 г., Комедия,, DVDRip]

Ответить на тему
 

2222 ®

Стаж: 5 лет 5 месяцев

Сообщений: 193

Симпатии: 3

За Двумя Зайцами
Год выпуска: 1963
Жанр: Комедия,
Продолжительность: 01:11:39
Режиссер: Виктор Иванов
В ролях:Олег Борисов — Свирид Петрович Голохвостый
Маргарита Криницына — Проня Прокоповна Серко
Николай Яковченко — Прокоп Свиридович Серко, отец Прони
Анна Кушниренко — Серчиха
Нонна Копержинская — Секлета
Наталья Наум — Галя, дочь Секлеты
Анатолий Юрченко — Степан
Константин Ершов — Пляшка
Таисия Литвиненко — Химка
Ольга Викландт — мадемуазель Нинон
Людмила Алфимова — Монашка Мерония

В эпизодах
Нина Антонова
А. Быков
Валентин Грудынин
Софья Карамаш
В. Костыренко
Н. Талюра
Р. Шабловская
Евдокия Доля
Описание: Жил-был молодой бездельник по фамилии Голохвастый. Он держал в украинском городке собственную цирюльню, пребывающую в плачевном состоянии, но большую часть времени проводил в кутежах и карточных играх. Проигравшись по крупному, Голохвастый решил поправить дела женитьбой…
Доп. информация: Рейтинг фильма
8.072 4 173
IMDb: 7.10 (147)
Качество: DVDRip
Формат: AVI
Видео кодек: XviD
Аудио кодек: AC3
Видео: 688x512,25FPS,2 733 Kbps
Аудио: AC-3,448 Kbps,48.0 KHz

Скриншоты






MEDIAINFO

Format : AVI
Format/Info : Audio Video Interleave
File size : 1.37 GiB
Duration : 1h 11mn
Overall bit rate : 2 733 Kbps
Writing application : VirtualDubModRus 1.5.10.2 (build 2542/release)
Writing library : VirtualDubMod build 2542/release
Video
ID : 0
Format : MPEG-4 Visual
Format profile : Advanced [email protected]
Format settings, BVOP : 2
Format settings, QPel : No
Format settings, GMC : No warppoints
Format settings, Matrix : Default (MPEG)
Muxing mode : Packed bitstream
Codec ID : XVID
Codec ID/Hint : XviD
Duration : 1h 11mn
Bit rate : 2 276 Kbps
Width : 688 pixels
Height : 512 pixels
Display aspect ratio : 4:3
Frame rate : 25.000 fps
Color space : YUV
Chroma subsampling : 4:2:0
Bit depth : 8 bits
Scan type : Progressive
Compression mode : Lossy
Bits/(Pixel*Frame) : 0.258
Stream size : 1.14 GiB (83%)
Writing library : XviD 1.2.1 (UTC 2008-12-04)
Audio
ID : 1
Format : AC-3
Format/Info : Audio Coding 3
Mode extension : CM (complete main)
Codec ID : 2000
Duration : 1h 11mn
Bit rate mode : Constant
Bit rate : 448 Kbps
Channel(s) : 6 channels
Channel positions : Front: L C R, Side: L R, LFE
Sampling rate : 48.0 KHz
Bit depth : 16 bits
Compression mode : Lossy
Stream size : 230 MiB (16%)
Alignment : Aligned on interleaves
Interleave, duration : 40 ms (1.00 video frame)
Interleave, preload duration : 512 ms

_________________
Подпись отключена за нарушение правил форума


Последний раз редактировалось: 2222 (2012-09-11 13:23), всего редактировалось 1 раз

Создавать темы 10-Сен-2012 23:21

[Профиль]  [ЛС] 

victor0778

Стаж: 6 лет 10 месяцев

Сообщений: 1670

Симпатии: 142

2222, актёров добавьте

Создавать темы 11-Сен-2012 01:21

[Профиль]  [ЛС] 

2222 ®

Стаж: 5 лет 5 месяцев

Сообщений: 193

Симпатии: 3

ОК

_________________
Подпись отключена за нарушение правил форума

Создавать темы 11-Сен-2012 13:24

[Профиль]  [ЛС] 

112

Стаж: 7 лет 1 месяц

Сообщений: 24

пож встаньте на раздачу!

Создавать темы 11-Сен-2012 19:33

[Профиль]  [ЛС] 

2222 ®

Стаж: 5 лет 5 месяцев

Сообщений: 193

Симпатии: 3

Всё,вернулся!Были неполадки с линией!

_________________
Подпись отключена за нарушение правил форума

Создавать темы 12-Сен-2012 20:22

[Профиль]  [ЛС] 

MongolRV

Стаж: 5 лет 11 месяцев

Сообщений: 8

на раздачу встаньте, будьте любезны!

Создавать темы 03-Дек-2012 23:29

[Профиль]  [ЛС] 

Artt

Стаж: 5 лет 10 месяцев

Сообщений: 8

Симпатии: 1

Сиды.
Встаньте на раздачу, пожалуйста.

Создавать темы 07-Дек-2012 12:59

[Профиль]  [ЛС] 
Показать сообщения:    
Ответить на тему

Текущее время: 11-Дек 19:52

Часовой пояс: UTC + 5



Вы не можете начинать темы
Вы не можете отвечать на сообщения
Вы не можете редактировать свои сообщения
Вы не можете удалять свои сообщения
Вы не можете голосовать в опросах
Вы не можете прикреплять файлы к сообщениям
Вы не можете скачивать файлы