Со склонов Кокурико / Kokuriko Saka kara / Coquelicot Saka kara / Kokuriko Zaka kara / From Up on Poppy Hill [Горо Миядзаки] [Movie] [Без хардсаба] [RUS(ext), JAP+SUB] [2011 г., романтика, школа, повседневность, история, сёдзё, BDRip-AVC]

Ответить на тему
 

Eaze ®

Стаж: 7 лет 3 месяца

Сообщений: 100

Симпатии: 7

Со склонов Кокурико / Kokuriko Saka kara / Coquelicot Saka kara / Kokuriko Zaka kara / From Up on Poppy Hill / С маковых склонов / コクリコ坂から- Страна: Япония
Год выпуска: 2011 г.
Жанр: романтика, школа, повседневность, история, сёдзё
Тип: Movie
Продолжительность: 01:30:51
Режиссер: Миядзаки Горо
Сценарий: Миядзаки Хаяо
Студия:
Описание: Действие сюжета разворачивается в 1963 году вокруг старшеклассницы Юми. Отец её, будучи капитаном судна, подорвался на мине во время войны с Кореей. Мама в отъезде. Вот и приходится Юми самой возиться по хозяйству, при этом не забывая каждое утро поднимать флажки - такое правило завёл отец, чтобы видеть с моря, что его ждут дома. В городке имеется школьный клуб с различными секциями по интересам. Этот клуб хотят снести, т. к. здание старое. И вот Юми вместе с другими школьными активистами приходится ехать в Токио к высшему руководству, дабы спасти дом от разрушения. И всё бы ничего, если бы эта история не была переплетена коллизиями прошедших военных лет, когда людям приходилось идти на трудные и, подчас, нелегкие поступки...
Информационные ссылки: WorldArt, AniDB, ANN, MyAnimeList, Allcinema
Качество: BDRip-AVC
Тип релиза: Без хардсаба
Формат видео: MKV
Совместимость с бытовыми плеерами: Нет
Видео: MPEG4 (H264) 1024x576 (16:9) 23.976 fps 1 584 kbps (10 bits)
Аудио: MPEG Audio Layer 3 48000Hz stereo 192 kbps; Язык: японский
Аудио 2: MPEG Audio Layer 3 48000Hz stereo 192 kbps; Язык: русский (внешним файлом); Озвучка: двухголосая от Eladiel & Absurd
Аудио 3: MPEG Audio Layer 3 48000Hz stereo 192 kbps; Язык: русский (внешним файлом); Озвучка: двухголосая от OSLIKt & Трина Дубовицкая
Субтитры: ass, встроенные; Язык: русский; Перевод: Advantage
Субтитры 2: ass, встроенные; Язык: русский; Перевод: Zhuravlik
Субтитры 3: srt, встроенные; Язык: русский; Перевод: Advantage

Подробные тех. данные

General
Unique ID : 238799482103299914206666567544267400051 (0xB3A71B79E4A16481817F7ADACB94E373)
Complete name : D:\Kokuriko\Kokuriko Saka kara (BDRip 1024x576 x264 Hi10p) (2011).mkv
Format : Matroska
Format version : Version 2
File size : 1.15 GiB
Duration : 1h 30mn
Overall bit rate : 1 812 Kbps
Encoded date : UTC 2012-07-25 20:25:51
Writing application : mkvmerge v5.7.0 ('The Whirlwind') built on Jul 8 2012 20:08:51
Writing library : libebml v1.2.3 + libmatroska v1.3.0
Video
ID : 1
Format : AVC
Format/Info : Advanced Video Codec
Format profile : High [email protected]
Format settings, CABAC : Yes
Format settings, ReFrames : 4 frames
Muxing mode : Header stripping
Codec ID : V_MPEG4/ISO/AVC
Duration : 1h 30mn
Bit rate : 1 584 Kbps
Width : 1 024 pixels
Height : 576 pixels
Display aspect ratio : 16:9
Frame rate : 23.976 fps
Color space : YUV
Chroma subsampling : 4:2:0
Bit depth : 10 bits
Scan type : Progressive
Bits/(Pixel*Frame) : 0.112
Stream size : 1.01 GiB (87%)
Writing library : x264 core 125 r2200 999b753
Encoding settings : cabac=1 / ref=4 / deblock=1:0:0 / analyse=0x3:0x133 / me=umh / subme=7 / psy=1 / psy_rd=1.00:0.00 / mixed_ref=1 / me_range=32 / chroma_me=1 / trellis=2 / 8x8dct=1 / cqm=0 / deadzone=21,11 / fast_pskip=0 / chroma_qp_offset=-2 / threads=3 / lookahead_threads=1 / sliced_threads=0 / nr=0 / decimate=1 / interlaced=0 / bluray_compat=0 / constrained_intra=0 / bframes=6 / b_pyramid=2 / b_adapt=2 / b_bias=0 / direct=3 / weightb=1 / open_gop=0 / weightp=2 / keyint=240 / keyint_min=23 / scenecut=40 / intra_refresh=0 / rc_lookahead=40 / rc=crf / mbtree=1 / crf=16.0 / qcomp=0.60 / qpmin=10 / qpmax=51 / qpstep=4 / ip_ratio=1.40 / aq=1:1.00
Language : Japanese
Default : Yes
Forced : No
Audio
ID : 2
Format : MPEG Audio
Format version : Version 1
Format profile : Layer 3
Mode : Joint stereo
Mode extension : MS Stereo
Muxing mode : Header stripping
Codec ID : A_MPEG/L3
Codec ID/Hint : MP3
Duration : 1h 30mn
Bit rate mode : Constant
Bit rate : 192 Kbps
Channel(s) : 2 channels
Sampling rate : 48.0 KHz
Compression mode : Lossy
Stream size : 125 MiB (11%)
Writing library : LAME3.98.4
Language : Japanese
Default : Yes
Forced : No
Text #1
ID : 3
Format : ASS
Codec ID : S_TEXT/ASS
Codec ID/Info : Advanced Sub Station Alpha
Compression mode : Lossless
Title : Advantage (ass)
Language : Russian
Default : Yes
Forced : No
Text #2
ID : 4
Format : ASS
Codec ID : S_TEXT/ASS
Codec ID/Info : Advanced Sub Station Alpha
Compression mode : Lossless
Title : Zhuravlik (ass)
Language : Russian
Default : No
Forced : No
Text #3
ID : 5
Format : UTF-8
Codec ID : S_TEXT/UTF8
Codec ID/Info : UTF-8 Plain Text
Title : Advantage (srt)
Language : Russian
Default : No
Forced : No

Скриншоты

-Источник: http://rutracker.org/forum/viewtopic.php?t=4135850


Последний раз редактировалось: Eaze (2012-09-11 22:41), всего редактировалось 2 раз(а)

Создавать темы 11-Сен-2012 19:15

[Профиль]  [ЛС] 

deltreeee

Стаж: 5 лет 8 месяцев

Сообщений: 110

А разве функция Релизы с Rutrackеr.org не работает?
Если нет, я помогу. Только ни того, ни другого нету.
И да, спасибо большое.

Создавать темы 11-Сен-2012 21:31

[Профиль]  [ЛС] 

deltreeee

Стаж: 5 лет 8 месяцев

Сообщений: 110

[size=17]Со склонов Кокурико / Kokuriko Saka kara / Coquelicot Saka kara / Kokuriko Zaka kara / From Up on Poppy Hill / С маковых склонов / コクリコ坂から[/size]
[hr]
[img=right]http://img.tas-ix.net/images/2013/5YRa2.jpg[/img]
[b]Страна[/b]: Япония
[b]Год выпуска[/b]: 2011 г.
[b]Жанр[/b]: романтика, школа, повседневность, история, сёдзё
[b]Тип[/b]: Movie
[b]Продолжительность[/b]: 01:30:51
[b]Режиссер[/b]: Миядзаки Горо
[b]Сценарий[/b]: Миядзаки Хаяо
[b]Студия[/b]: [img]http://img.tas-ix.net/images/2013/chuT.jpg[/img]
[b]Описание:[/b] Действие сюжета разворачивается в 1963 году вокруг старшеклассницы Юми. Отец её, будучи капитаном судна, подорвался на мине во время войны с Кореей. Мама в отъезде. Вот и приходится Юми самой возиться по хозяйству, при этом не забывая каждое утро поднимать флажки - такое правило завёл отец, чтобы видеть с моря, что его ждут дома. В городке имеется школьный клуб с различными секциями по интересам. Этот клуб хотят снести, т. к. здание старое. И вот Юми вместе с другими школьными активистами приходится ехать в Токио к высшему руководству, дабы спасти дом от разрушения. И всё бы ничего, если бы эта история не была переплетена коллизиями прошедших военных лет, когда людям приходилось идти на трудные и, подчас, нелегкие поступки...
[b]Информационные ссылки[/b]: [url=http://www.world-art.ru/animation/animation.php?id=8121]WorldArt[/url], [url=http://anidb.net/perl-bin/animedb.pl?show=anime&aid=8141]AniDB[/url], [url=http://www.animenewsnetwork.com/encyclopedia/anime.php?id=12307]ANN[/url], [url=http://myanimelist.net/anime/10029/]MyAnimeList[/url], [url=http://www.allcinema.net/prog/show_c.php?num_c=338753]Allcinema[/url]
[b]Качество[/b]: BDRip-AVC
[b]Тип релиза[/b]: Без хардсаба
[b]Формат видео[/b]: MKV
[b]Совместимость с бытовыми плеерами[/b]: Нет
[b]Видео[/b]: MPEG4 (H264) 1024x576 (16:9) 23.976 fps 1 584 kbps ([u]10 bits[/u])
[b]Аудио[/b]: MPEG Audio Layer 3 48000Hz stereo 192 kbps; Язык: японский
[b]Аудио 2[/b]: MPEG Audio Layer 3 48000Hz stereo 192 kbps; Язык: русский (внешним файлом); Озвучка: двухголосая от Eladiel & Absurd
[b]Аудио 3[/b]: MPEG Audio Layer 3 48000Hz stereo 192 kbps; Язык: русский (внешним файлом); Озвучка: двухголосая от OSLIKt & Трина Дубовицкая
[b]Субтитры[/b]: ass, встроенные; Язык: русский; Перевод: Advantage
[b]Субтитры[/b] 2: ass, встроенные; Язык: русский; Перевод: Zhuravlik
[b]Субтитры[/b] 3: srt, встроенные; Язык: русский; Перевод: Advantage
[spoiler="Подробные тех. данные"]
General
Unique ID                      : 238799482103299914206666567544267400051 (0xB3A71B79E4A16481817F7ADACB94E373)
Complete name                  : D:\Kokuriko\Kokuriko Saka kara (BDRip 1024x576 x264 Hi10p) (2011).mkv
Format                         : Matroska
Format version                 : Version 2
File size                      : 1.15 GiB
Duration                       : 1h 30mn
Overall bit rate               : 1 812 Kbps
Encoded date                   : UTC 2012-07-25 20:25:51
Writing application            : mkvmerge v5.7.0 ('The Whirlwind') built on Jul  8 2012 20:08:51
Writing library                : libebml v1.2.3 + libmatroska v1.3.0
Video
ID                             : 1
Format                         : AVC
Format/Info                    : Advanced Video Codec
Format profile                 : High [email protected]
Format settings, CABAC         : Yes
Format settings, ReFrames      : 4 frames
Muxing mode                    : Header stripping
Codec ID                       : V_MPEG4/ISO/AVC
Duration                       : 1h 30mn
Bit rate                       : 1 584 Kbps
Width                          : 1 024 pixels
Height                         : 576 pixels
Display aspect ratio           : 16:9
Frame rate                     : 23.976 fps
Color space                    : YUV
Chroma subsampling             : 4:2:0
Bit depth                      : 10 bits
Scan type                      : Progressive
Bits/(Pixel*Frame)             : 0.112
Stream size                    : 1.01 GiB (87%)
Writing library                : x264 core 125 r2200 999b753
Encoding settings              : cabac=1 / ref=4 / deblock=1:0:0 / analyse=0x3:0x133 / me=umh / subme=7 / psy=1 / psy_rd=1.00:0.00 / mixed_ref=1 / me_range=32 / chroma_me=1 / trellis=2 / 8x8dct=1 / cqm=0 / deadzone=21,11 / fast_pskip=0 / chroma_qp_offset=-2 / threads=3 / lookahead_threads=1 / sliced_threads=0 / nr=0 / decimate=1 / interlaced=0 / bluray_compat=0 / constrained_intra=0 / bframes=6 / b_pyramid=2 / b_adapt=2 / b_bias=0 / direct=3 / weightb=1 / open_gop=0 / weightp=2 / keyint=240 / keyint_min=23 / scenecut=40 / intra_refresh=0 / rc_lookahead=40 / rc=crf / mbtree=1 / crf=16.0 / qcomp=0.60 / qpmin=10 / qpmax=51 / qpstep=4 / ip_ratio=1.40 / aq=1:1.00
Language                       : Japanese
Default                        : Yes
Forced                         : No
Audio
ID                             : 2
Format                         : MPEG Audio
Format version                 : Version 1
Format profile                 : Layer 3
Mode                           : Joint stereo
Mode extension                 : MS Stereo
Muxing mode                    : Header stripping
Codec ID                       : A_MPEG/L3
Codec ID/Hint                  : MP3
Duration                       : 1h 30mn
Bit rate mode                  : Constant
Bit rate                       : 192 Kbps
Channel(s)                     : 2 channels
Sampling rate                  : 48.0 KHz
Compression mode               : Lossy
Stream size                    : 125 MiB (11%)
Writing library                : LAME3.98.4
Language                       : Japanese
Default                        : Yes
Forced                         : No
Text #1
ID                             : 3
Format                         : ASS
Codec ID                       : S_TEXT/ASS
Codec ID/Info                  : Advanced Sub Station Alpha
Compression mode               : Lossless
Title                          : Advantage (ass)
Language                       : Russian
Default                        : Yes
Forced                         : No
Text #2
ID                             : 4
Format                         : ASS
Codec ID                       : S_TEXT/ASS
Codec ID/Info                  : Advanced Sub Station Alpha
Compression mode               : Lossless
Title                          : Zhuravlik (ass)
Language                       : Russian
Default                        : No
Forced                         : No
Text #3
ID                             : 5
Format                         : UTF-8
Codec ID                       : S_TEXT/UTF8
Codec ID/Info                  : UTF-8 Plain Text
Title                          : Advantage (srt)
Language                       : Russian
Default                        : No
Forced                         : No
[/spoiler]
[spoiler="Скриншоты"]
[url=http://img.tas-ix.net/images/2013/S4jB.png][img]http://img.tas-ix.net/images/2013/thumbs/S4jB.png[/img][/url][url=http://img.tas-ix.net/images/2013/r5ked.png][img]http://img.tas-ix.net/images/2013/thumbs/r5ked.png[/img][/url][url=http://img.tas-ix.net/images/2013/6vyoL.png][img]http://img.tas-ix.net/images/2013/thumbs/6vyoL.png[/img][/url][url=http://img.tas-ix.net/images/2013/MeGO5.png][img]http://img.tas-ix.net/images/2013/thumbs/MeGO5.png[/img][/url][url=http://img.tas-ix.net/images/2013/tZRyg.png][img]http://img.tas-ix.net/images/2013/thumbs/tZRyg.png[/img][/url][url=http://img.tas-ix.net/images/2013/7Ttc.png][img]http://img.tas-ix.net/images/2013/thumbs/7Ttc.png[/img][/url][url=http://img.tas-ix.net/images/2013/XQ5P.png][img]http://img.tas-ix.net/images/2013/thumbs/XQ5P.png[/img][/url][url=http://img.tas-ix.net/images/2013/E5gxc.png][img]http://img.tas-ix.net/images/2013/thumbs/E5gxc.png[/img][/url][url=http://img.tas-ix.net/images/2013/REvxk.png][img]http://img.tas-ix.net/images/2013/thumbs/REvxk.png[/img][/url][url=http://img.tas-ix.net/images/2013/dGyTQ.png][img]http://img.tas-ix.net/images/2013/thumbs/dGyTQ.png[/img][/url]
[/spoiler]
[align=center][url=http://rutracker.org/forum/viewtopic.php?t=3682344]  [size=16]Как смотреть 10-битное видео?[/size]  [/url][/align]
[hr]
[b]Источник[/b]: http://rutracker.org/forum/viewtopic.php?t=4135850

Создавать темы 11-Сен-2012 22:36

[Профиль]  [ЛС] 

Eaze ®

Стаж: 7 лет 3 месяца

Сообщений: 100

Симпатии: 7

deltreeee, спасибо

Создавать темы 11-Сен-2012 22:42

[Профиль]  [ЛС] 

doshlid

Стаж: 5 лет 9 месяцев

Сообщений: 23

Симпатии: 1

Как переводы подключить, они же отдельные mp3?

Создавать темы 13-Сен-2012 14:17

[Профиль]  [ЛС] 

deltreeee

Стаж: 5 лет 8 месяцев

Сообщений: 110

doshlid
зайди на google.ru
набери "как подключить отдельную аудио дорожку к видео"
пройди по первому результату
ОК?

Создавать темы 14-Сен-2012 03:24

[Профиль]  [ЛС] 

Yagami Light

Стаж: 6 лет 6 месяцев

Сообщений: 140

зачем гуугл, если здесь есть
Как подключить альтернативную (внешнюю) звуковую дорожку к видео?

Создавать темы 14-Сен-2012 22:52

[Профиль]  [ЛС] 

Kyon

Стаж: 6 лет 5 месяцев

Сообщений: 19

зайди на google.ru
дежурный, ответь для всех !!

Создавать темы 15-Сен-2012 22:41

[Профиль]  [ЛС] 

joha

Стаж: 6 лет 11 месяцев

Сообщений: 23

люди добрые вернитесь на раздачу!

Создавать темы 27-Авг-2013 17:10

[Профиль]  [ЛС] 

daemon1

Стаж: 4 года 8 месяцев

Сообщений: 26

Симпатии: 5

сиды будет или нет ?

Создавать темы 07-Апр-2015 16:13

[Профиль]  [ЛС] 
Показать сообщения:    
Ответить на тему

Текущее время: 24-Окт 10:47

Часовой пояс: UTC + 5



Вы не можете начинать темы
Вы не можете отвечать на сообщения
Вы не можете редактировать свои сообщения
Вы не можете удалять свои сообщения
Вы не можете голосовать в опросах
Вы не можете прикреплять файлы к сообщениям
Вы не можете скачивать файлы