WWE Friday Night Smackdown 07/09/2012 [2012 г., Реслинг, HDTVRip]

Ответить на тему
 

Спартанец ®

Стаж: 5 лет 9 месяцев

Сообщений: 361

WWE Friday Night Smackdown 07/09/2012
Год выпуска: 2012
Вид спорта: Реслинг
Участники: Зведы WWE
Продолжительность: 01.23.47
Комментарий: Профессиональный (многоголосый, закадровый)
Язык комментариев: Русский
Описание: Еженедельный выпуск Friday Night Smackdown . Выпуск от 07-го сентября 2012 года
Качество: HDTVRip
Формат: Mр4
Видео кодек: х264\AVC
Аудио кодек: AAC
Видео: MPEG4, Video, (H264), 704x400, 25fps, 1 470 Kbps
Аудио: MPEG4, Audio, 44100Hz, stereo, 1411kbps, 128 Kbps

Кард

Sheamus vs. David Otunga
Rey Mysterio & Sin Cara vs. The Miz & Cody Rhodes
Randy Orton vs. Damien Sandow
Daniel Bryan vs. Zack Ryder
The Prime Time Players vs. Epico & Primo
Also appearing are Dolph Ziggler, Vickie Guerrero, Booker T, Teddy Long, Alberto Del Rio, Ricardo Rodriguez and more.

Скриншоты

МедиаИнфо

General
Format : MPEG-4
Format profile : Base Media
Codec ID : isom
File size : 957 MiB
Duration : 1h 23mn
Overall bit rate mode : Variable
Overall bit rate : 1 597 Kbps
Encoded date : UTC 2012-09-06 18:26:54
Tagged date : UTC 2012-09-06 18:26:54
Writing application : Yamb 2.1.0.0 [http://yamb.unite-video.com]
Video
ID : 1
Format : AVC
Format/Info : Advanced Video Codec
Format profile : [email protected]
Format settings, CABAC : Yes
Format settings, ReFrames : 4 frames
Codec ID : avc1
Codec ID/Info : Advanced Video Coding
Duration : 1h 23mn
Bit rate : 1 470 Kbps
Maximum bit rate : 6 559 Kbps
Width : 704 pixels
Height : 400 pixels
Display aspect ratio : 16:9
Frame rate mode : Constant
Frame rate : 25.000 fps
Color space : YUV
Chroma subsampling : 4:2:0
Bit depth : 8 bits
Scan type : Progressive
Bits/(Pixel*Frame) : 0.209
Stream size : 878 MiB (92%)
Writing library : x264 core 120
Encoding settings : cabac=1 / ref=3 / deblock=1:0:0 / analyse=0x3:0x113 / me=hex / subme=7 / psy=1 / psy_rd=1.00:0.00 / mixed_ref=1 / me_range=16 / chroma_me=1 / trellis=1 / 8x8dct=1 / cqm=0 / deadzone=21,11 / fast_pskip=1 / chroma_qp_offset=-2 / threads=6 / sliced_threads=0 / nr=0 / decimate=1 / interlaced=0 / bluray_compat=0 / constrained_intra=0 / bframes=3 / b_pyramid=2 / b_adapt=2 / b_bias=0 / direct=1 / weightb=1 / open_gop=0 / weightp=2 / keyint=250 / keyint_min=25 / scenecut=40 / intra_refresh=0 / rc_lookahead=40 / rc=abr / mbtree=1 / bitrate=1470 / ratetol=1.0 / qcomp=0.60 / qpmin=3 / qpmax=69 / qpstep=4 / ip_ratio=1.40 / aq=1:1.00
Encoded date : UTC 2012-09-07 09:21:35
Tagged date : UTC 2012-09-06 18:28:26
Color primaries : BT.709-5, BT.1361, IEC 61966-2-4, SMPTE RP177
Transfer characteristics : BT.709-5, BT.1361
Matrix coefficients : BT.709-5, BT.1361, IEC 61966-2-4 709, SMPTE RP177
Audio
ID : 2
Format : AAC
Format/Info : Advanced Audio Codec
Format profile : LC
Codec ID : 40
Duration : 1h 23mn
Bit rate mode : Variable
Bit rate : 128 Kbps
Maximum bit rate : 160 Kbps
Channel(s) : 2 channels
Channel positions : Front: L R
Sampling rate : 44.1 KHz
Compression mode : Lossy
Stream size : 76.7 MiB (8%)
Encoded date : UTC 2012-09-06 18:28:10
Tagged date : UTC 2012-09-06 18:28:26

Создавать темы 12-Сен-2012 12:35

[Профиль]  [ЛС] 

Ala

Стаж: 6 лет 7 месяцев

Сообщений: 45

Спартанец, красава)) az

Создавать темы 12-Сен-2012 12:39

[Профиль]  [ЛС] 

Спартанец ®

Стаж: 5 лет 9 месяцев

Сообщений: 361

Всегда пожалуйста ))

Создавать темы 12-Сен-2012 12:40

[Профиль]  [ЛС] 

Strong_bad

Стаж: 5 лет 2 месяца

Сообщений: 7

3-й скрин круто вышел чувак спс за релиз....

Создавать темы 12-Сен-2012 13:59

[Профиль]  [ЛС] 

DOBER_

Стаж: 5 лет 10 месяцев

Сообщений: 56

Симпатии: 1

Супер.Но не кого нету на раздаче...обижаеш спартанец)

Создавать темы 12-Сен-2012 17:24

[Профиль]  [ЛС] 

NodirAgenT

Стаж: 6 лет 7 месяцев

Сообщений: 204

Извините Я чутка на перед Этого Смека Тут
( Шеймусу Отменят Броу Кик и он все равно использует его на РО , он на ближайшем Смэкдауне может лишиться своего Мирового Титула Чемпион Шеймус, если еще хоть раз воспользуется Броу Киком. Не важно где, когда и кому.
На записях пятничного SmackDown был назначен новый бой на PPV Night of Champions:
WWE Intercontinental Championship: The Miz vs Rey Mysterio vs Cody Rhodes vs Sin Cara - Fatal 4 way Match!
(Есси не знаете На реслманию 29 Планировали Фьюд СИн кары и Мистерио ТАк что Посмотрим что Будет

_________________
Подпись отключена за нарушение правил форума

Создавать темы 12-Сен-2012 19:12

[Профиль]  [ЛС] 

NodirAgenT

Стаж: 6 лет 7 месяцев

Сообщений: 204

В то время, как Райбек выигрывает сквош-матчи на ТВ, на хаус-шоу Райбек участвует в матчах длительностью от 5 до 10 минут. Скоро на ТВ мы увидим новый сюжет Райбека, говорят он выиграет чемпионство США.

_________________
Подпись отключена за нарушение правил форума

Создавать темы 12-Сен-2012 20:56

[Профиль]  [ЛС] 

Has&Hay

Стаж: 6 лет 7 месяцев

Сообщений: 138

Симпатии: 6

Спартанец раздавай ...

Создавать темы 13-Сен-2012 17:39

[Профиль]  [ЛС] 

MarduK

Стаж: 5 лет 10 месяцев

Сообщений: 127

http://tas-ix.net/viewtopic.php?t=53714 RAW от 10.09. 2012г. надеюсь никто не будет против....

Создавать темы 15-Сен-2012 01:25

[Профиль]  [ЛС] 

McFLY

Стаж: 5 лет 8 месяцев

Сообщений: 658

Симпатии: 22

MarduK, кто же будет против :) все только ЗА!!!

Создавать темы 15-Сен-2012 01:31

[Профиль]  [ЛС] 
Показать сообщения:    
Ответить на тему

Текущее время: 20-Ноя 05:26

Часовой пояс: UTC + 5



Вы не можете начинать темы
Вы не можете отвечать на сообщения
Вы не можете редактировать свои сообщения
Вы не можете удалять свои сообщения
Вы не можете голосовать в опросах
Вы не можете прикреплять файлы к сообщениям
Вы не можете скачивать файлы