BBC: Чингисхан/ Genghis Khan (Эдвард Базалгетт) [2005 г., драма, биография, DVDRip]

Ответить на тему
 

Dextermorgan ®

Стаж: 5 лет 2 месяца

Сообщений: 8

BBC: Чингисхан (Genghis Khan)
Год выпуска: 2005
Жанр: драма, биография
Продолжительность: 00:49:53
Режиссер: Эдвард Базалгетт
В ролях: Оргил Макхаан, Анаболд Батбаяр, Унуджаргал Джидшживсурен, Эрденетсетсег Базаррагча, Анхням Рача, Баяркху Пурвее, Кеннет Крэнхем, Алисдаир Симпсон
Описание: Можно с уверенностью сказать что Чингисхан был одним из величайших завоевателей в истории Земли. Захваченные им территории измерялись не в тысячах, а в миллионах квадратных километров и простирались от азиатских степей до самого сердца Европы. Захват и порабощение — вот главные цели Чингисхана.
Он не искал земель лучше и богаче чем Монгольские степи. Он просто покорял народы, потому что видел в этом смысл своей жизни. Война ради войны.
Качество: DVDRip
Формат: AVI
Видео кодек: DivX
Аудио кодек: MP3
Видео: 544х304, 838 Kbps, 25.000 fps
Аудио: 128 kbps, 2 channels

Media Info

Video
ID : 0
Format : MPEG-4 Visual
Format profile: Advanced [email protected]
Format settings, BVOP: 1
Format settings, QPel: No
Format settings, GMC: No warppoints
Format settings, Matrix: Custom
Codec ID: XVID
Codec ID/Hint : XviD
Duration : 49mn 53s
Bit rate : 838 Kbps
Width: 544 pixels
Height : 304 pixels
Display aspect ratio : 16:9
Frame rate : 25.000 fps
Color space : YUV
Chroma subsampling : 4:2:0
Bit depth : 8 bits
Scan type : Progressive
Compression mode : Lossy
Bits/(Pixel*Frame) : 0.203
Stream size: 299 MiB (86%)
Writing library: XviD 1.1.0 (UTC 2005-11-22)
Audio
ID : 1
Format: MPEG Audio
Format version: Version 1
Format profile : Layer 3
Mode : Dual mono
Codec ID : 55
Codec ID/Hint : MP3
Duration : 49mn 53s
Bit rate mode : Constant
Bit rate : 128 Kbps
Channel(s) : 2 channels
Sampling rate : 48.0 KHz
Compression mode : Lossy
Stream size : 45.7 MiB (13%)
Alignment : Aligned on interleaves
Interleave, duration: 40 ms (1.00 video frame)
Interleave, preload duration: 504 ms

Скриншоты

Создавать темы 13-Сен-2012 15:56

[Профиль]  [ЛС] 

victor0778

Стаж: 6 лет 9 месяцев

Сообщений: 1670

Симпатии: 142

Dextermorgan, дооформил за вас

Создавать темы 16-Сен-2012 16:49

[Профиль]  [ЛС] 

Dextermorgan ®

Стаж: 5 лет 2 месяца

Сообщений: 8

Большое спасибо! Я загружал с img.uz поэтому они были маленькими)))

Создавать темы 16-Сен-2012 23:25

[Профиль]  [ЛС] 

Dextermorgan ®

Стаж: 5 лет 2 месяца

Сообщений: 8

И ешшо как удалить первого?

Создавать темы 16-Сен-2012 23:59

[Профиль]  [ЛС] 

victor0778

Стаж: 6 лет 9 месяцев

Сообщений: 1670

Симпатии: 142

И ешшо как удалить первого?
чего первого? кого первого?

Создавать темы 17-Сен-2012 00:20

[Профиль]  [ЛС] 

Dextermorgan ®

Стаж: 5 лет 2 месяца

Сообщений: 8

BBC: Чингисхан первый который я создал

Создавать темы 17-Сен-2012 00:31

[Профиль]  [ЛС] 

victor0778

Стаж: 6 лет 9 месяцев

Сообщений: 1670

Симпатии: 142

Dextermorgan, удалил

Создавать темы 17-Сен-2012 01:30

[Профиль]  [ЛС] 

victor0778

Стаж: 6 лет 9 месяцев

Сообщений: 1670

Симпатии: 142

Dextermorgan, вы на раздачу вставайте

Создавать темы 17-Сен-2012 01:30

[Профиль]  [ЛС] 

vanagrex

Стаж: 5 лет 8 месяцев

Сообщений: 118

Симпатии: 20

Познавательно, спасибо.

Создавать темы 17-Сен-2012 14:03

[Профиль]  [ЛС] 

pirat

Стаж: 5 лет 7 месяцев

Сообщений: 216

Симпатии: 63

очень познавательно. спасибо.

Создавать темы 24-Сен-2012 18:13

[Профиль]  [ЛС] 

DIMID

Стаж: 5 лет 1 месяц

Сообщений: 60

Симпатии: 8

ДАЙТЕ СКОРОСТЬ ПОЖАЛУЙСТА, заранее Спасибо!

Создавать темы 22-Янв-2013 02:17

[Профиль]  [ЛС] 
Показать сообщения:    
Ответить на тему

Текущее время: 23-Ноя 12:37

Часовой пояс: UTC + 5



Вы не можете начинать темы
Вы не можете отвечать на сообщения
Вы не можете редактировать свои сообщения
Вы не можете удалять свои сообщения
Вы не можете голосовать в опросах
Вы не можете прикреплять файлы к сообщениям
Вы не можете скачивать файлы