Перл Харбор / Pearl Harbor (Майкл Бэй / Michael Bay) [2001 г., Боевик, мелодрама, военный, BDRip 720p][Лицензия]

Ответить на тему
 

Makarov ®

Стаж: 6 лет 5 месяцев

Сообщений: 46

Симпатии: 3

Перл Харбор/Pearl Harbor- Год выпуска: 2001
Выпущено:: США
Жанр: Боевик, мелодрама, военный
Продолжительность: 03:03:05
Перевод: Профессиональный (полное дублирование)- Режиссер: Майкл Бэй / Michael Bay- В ролях: Бен Аффлек, Джош Хартнет, Кейт Бекинсейл, Кьюба Гудинг мл., Алек Болдуин, Джон Войт, Том Сайзмор, Уильям Ли Скотт, Грег Зоула, Ивен Бремнер, Джейми Кинг, Катрин Келлнер, Дженнифер Гарнер, Сара Ру, Майкл Шеннон, Дэн Эйкройд, Колм Фиори, Джон Фуджиока, Мако, Кэри-Хироюки Тагава, Мэттью Дэвис- Описание: Это история двух друзей — летчиков. Их судьбы переплавились в топке Второй мировой войны. Их чувства были опалены языками великой страсти. Огонь стал для них вторым домом. Мир рушился, прошлое скрылось в сумерках пожарищ, и теперь за будущее должен был бороться каждый, на земле и на небе, в дружбе и вражде.
Обычным воскресным утром 7 декабря 1941 года эскадроны японских военных самолетов совершают неожиданное и стремительное нападение на базу Перл Харбор. США, не принимавшие до этого дня участия во Второй мировой войне, вступают в войну после бессмысленной атаки японских эскадрилий...-Дополнительно:детям до 13 лет просмотр не желателен
- Качество: BDRip
Формат: MKV
Видео кодек: Другой MPEG4
Аудио кодек: AC3
Видео: MPEG4 Video 1280х544, (4:2:0) 23.976 fps, 5 568 Kbps
Аудио: Russian: AC3, 384 Kbps, 48,0 КГц Субтитры: Russian

Награды


Лучший звук, Лучшие визуальные эффекты, Лучшая песня

Mediainfo

Duration : 3h 3mn
Overall bit rate : 5 955 Kbps
Encoded date : UTC 2007-08-16 06:39:22
Writing application : mkvmerge v2.0.2 ('You're My Flame') built on Feb 21 2007 23:40:55
Writing library : libebml v0.7.7 + libmatroska v0.8.1
Video
ID : 1
Format : AVC
Format/Info : Advanced Video Codec
Format profile : [email protected]
Format settings, CABAC : Yes
Format settings, ReFrames : 13 frames
Muxing mode : Container [email protected]
Codec ID : V_MPEG4/ISO/AVC
Duration : 3h 2mn
Bit rate : 5 453 Kbps
Nominal bit rate : 5 568 Kbps
Width : 1 280 pixels
Height : 544 pixels
Display aspect ratio : 2.35:1
Frame rate : 23.976 fps
Resolution : 8 bits
Colorimetry : 4:2:0
Scan type : Progressive
Bits/(Pixel*Frame) : 0.327
Stream size : 6.97 GiB (91%)
Title : Pearl Harbor (2001)
Writing library : x264 core 54 svn-635M
Encoding settings : cabac=1 / ref=10 / deblock=1:-3:-3 / analyse=0x3:0x133 / me=hex / subme=7 / brdo=1 / mixed_ref=1 / me_range=16 / chroma_me=1 / trellis=2 / 8x8dct=1 / cqm=2 / deadzone=21,11 / chroma_qp_offset=0 / threads=2 / nr=0 / decimate=0 / mbaff=0 / bframes=3 / b_pyramid=1 / b_adapt=1 / b_bias=0 / direct=3 / wpredb=1 / bime=1 / keyint=240 / keyint_min=24 / scenecut=40(pre) / rc=2pass / bitrate=5568 / ratetol=1.0 / rceq='blurCplx^(1-qComp)' / qcomp=0.60 / qpmin=10 / qpmax=51 / qpstep=4 / cplxblur=20.0 / qblur=0.5 / ip_ratio=1.40 / pb_ratio=1.30 / zones
Audio
ID : 2
Format : AC-3
Format/Info : Audio Coding 3
Codec ID : A_AC3
Duration : 3h 3mn
Bit rate mode : Constant
Bit rate : 384 Kbps
Channel(s) : 6 channels
Channel positions : Front: L C R, Side: L R, LFE
Sampling rate : 48.0 KHz
Stream size : 503 MiB (6%)
Title : DD 5.1 (384 Kbps)
Language : Russian

Скриншоты

Создавать темы 14-Сен-2012 11:16

[Профиль]  [ЛС] 

Trog

Стаж: 5 лет 9 месяцев

Сообщений: 7

за релиз спс +1

Создавать темы 21-Май-2013 18:43

[Профиль]  [ЛС] 

Trog

Стаж: 5 лет 9 месяцев

Сообщений: 7

народ скорости

Создавать темы 21-Май-2013 18:44

[Профиль]  [ЛС] 

timmy

Стаж: 5 лет 9 месяцев

Сообщений: 16

не уходите пожалуйста с раздачи.. !!! спасибо всем заранее!!! низкий поклон..!!! =)

Создавать темы 17-Июн-2013 10:29

[Профиль]  [ЛС] 

timmy

Стаж: 5 лет 9 месяцев

Сообщений: 16

а как поднимать скорость на раздачах.. простите за оффтоп... я бы тоже поднял на своих скорость.. но как??? объясните плиз кто нибудь...спасибо

Создавать темы 17-Июн-2013 10:37

[Профиль]  [ЛС] 

yamakasy

Стаж: 5 лет 9 месяцев

Сообщений: 12

Создавать темы 30-Июн-2013 20:12

[Профиль]  [ЛС] 

натали

Стаж: 5 лет 9 месяцев

Сообщений: 26

Симпатии: 3

Помогите скачать! Скорости дайте , пожалуйста

Создавать темы 20-Фев-2014 11:42

[Профиль]  [ЛС] 

PanzerFastuz

Стаж: 3 года 11 месяцев

Сообщений: 9

Походу еще один мертвый торрент. Больше 96,2 уже пару месяцев не качает.

Создавать темы 17-Апр-2014 15:31

[Профиль]  [ЛС] 

натали

Стаж: 5 лет 9 месяцев

Сообщений: 26

Симпатии: 3

Это точно. И автора не дозовешься же.

Создавать темы 19-Апр-2014 09:31

[Профиль]  [ЛС] 

натали

Стаж: 5 лет 9 месяцев

Сообщений: 26

Симпатии: 3

И скачавшие сбежали.

Создавать темы 19-Апр-2014 09:35

[Профиль]  [ЛС] 

Jahongir1987

Стаж: 4 года 10 месяцев

Сообщений: 7

дайте скачать до конца!!!!!!!!!!!!!!!!!!!!!!!!!!!!!!!!!!!!!!!!!!!!!!!

Создавать темы 21-Июн-2014 13:37

[Профиль]  [ЛС] 
Показать сообщения:    
Ответить на тему

Текущее время: 19-Ноя 02:26

Часовой пояс: UTC + 5



Вы не можете начинать темы
Вы не можете отвечать на сообщения
Вы не можете редактировать свои сообщения
Вы не можете удалять свои сообщения
Вы не можете голосовать в опросах
Вы не можете прикреплять файлы к сообщениям
Вы не можете скачивать файлы