Walk Off The Earth - Somebody That I Used To Know (Gotye Cover) [2012 г., Alternative Rock, Independent Rock, HDTVRip-AVC]

Ответить на тему
 

ziyod19-91 ®

Стаж: 5 лет 10 месяцев

Сообщений: 27

Симпатии: 1

Walk Off The Earth - Somebody That I Used To Know (Gotye Cover)
Год выпуска: 2012
Страна: Canada
Жанр: Alternative Rock, Independent Rock
Продолжительность: 00:04:24
Web-site: http://walkofftheearth.com
Описание: В январе 2012 года канадская инди-рок группа Walk Off the Earth загрузила свою версию песни „Somebody That I Used to Know“ на видеосервис YouTube. На видео пять человек играют на одной акустической гитаре, так как на тот момент у них под рукой не было других инструментов. В субботу 7 января 2012 актер Рассел Кроу, после просмотра видео, написал им в твиттер. Алисса Милано и Троян Беллисарио стали поклонницами Walk Off the Earth. Эллен Дедженерес позвала группу на её шоу (Ellen Show) 23 января 2012, где они играли в живую, снова на одной гитаре, несмотря на простуду Джоанни.
Видео на песню Gotye «Somebody That I Used to Know» стало очень популярным: в начале 2012 года и набрало более 47 миллионов просмотров за 29 дней, на 9 июня 2012 года её посмотрело более 117 миллионов зрителей YouTube . После отснятого видео группа получила положительные отзывы от Gotye.
Качество: HDTVRip-AVC
Формат: MPEG-4 (.mp4)
Видео кодек: AVC
Аудио кодек: AAC
Видео: 1550 kbps, 1280x720, 23.976 fps
Аудио: 152 kbps, 44.1 kHz, 2 channels

Справка:

«Somebody That I Used to Know» (рус. Кто-то, кого я знал) — песня австралийского певца и автора Готье при участии новозеландской певицы Кимбры (Выпущен: 6 июля 2011). В начале 2012 года сингл возглавил чарты многих стран, включая Великобританию, Австралию, Бельгию, Германию, Голландию, Данию, Новую Зеландию, Польшу и др. В США сингл стал 1-м в истории, который возглавлил не только основной Billboard Hot 100, но и многие разножанровые чарты.
К маю 2012 года в мире было продано более 7 млн копий сингла, а видеоклип на YouTube был просмотрен более 261 млн раз.

Участники группы:

• Джоанни Люминати — гитара, электрогитара, укулеле, банджо, ударные, вокал, бонг, контрабас, клавишные.
• Райан Маршал — гитара, укулеле, труба, вокал
• Майк Тэйлор — клавишные, контрабас, бас-гитара, вокал
• Джоэль Кассади — ударные, гитара
• Сара Блэквуд — гитара, электронная гитара, укулеле, банджо, ударные, вокал, клавишные, бубен

MediaInfo

General
Complete name : Walk Off The Earth - Somebody That I Used To Know (Gotye Cover).mp4
Format : MPEG-4
Format profile : Base Media / Version 2
Codec ID : mp42
File size : 53.7 MiB
Duration : 4mn 24s
Overall bit rate mode : Variable
Overall bit rate : 1 704 Kbps
Encoded date : UTC 2012-01-05 08:58:42
Tagged date : UTC 2012-01-05 08:58:42
gsst : 0
gstd : 264126
gssd : BD075E04AHH1331200809110645
gshh : o-o.preferred.plix-waw3.v7.lscache5.c.youtube.com
Video
ID : 1
Format : AVC
Format/Info : Advanced Video Codec
Format profile : [email protected]
Format settings, CABAC : Yes
Format settings, ReFrames : 1 frame
Format settings, GOP : M=1, N=30
Codec ID : avc1
Codec ID/Info : Advanced Video Coding
Duration : 4mn 24s
Bit rate : 1 550 Kbps
Maximum bit rate : 2 279 Kbps
Width : 1 280 pixels
Height : 720 pixels
Display aspect ratio : 16:9
Frame rate mode : Constant
Frame rate : 23.976 fps
Color space : YUV
Chroma subsampling : 4:2:0
Bit depth : 8 bits
Scan type : Progressive
Bits/(Pixel*Frame) : 0.070
Stream size : 48.8 MiB (91%)
Tagged date : UTC 2012-01-05 08:58:42
Audio
ID : 2
Format : AAC
Format/Info : Advanced Audio Codec
Format profile : LC
Codec ID : 40
Duration : 4mn 24s
Bit rate mode : Variable
Bit rate : 152 Kbps
Maximum bit rate : 183 Kbps
Channel(s) : 2 channels
Channel positions : Front: L R
Sampling rate : 44.1 KHz
Compression mode : Lossy
Stream size : 4.78 MiB (9%)
Title : IsoMedia File Produced by Google, 5-11-2011
Encoded date : UTC 2012-01-05 08:58:42
Tagged date : UTC 2012-01-05 08:58:42

Скриншоты




Создавать темы 15-Сен-2012 23:18

[Профиль]  [ЛС] 

Топик был перенесен из форума Клипы в форум Live show / Video

TIESTO

Создавать темы 15-Сен-2012 23:26

 

DeNVeR

Стаж: 7 лет 4 месяца

Сообщений: 43

Симпатии: 4

отличный кавер! афигенные музыканты! особенно волосатый ))

Создавать темы 23-Сен-2012 22:14

[Профиль]  [ЛС] 
Показать сообщения:    
Ответить на тему

Текущее время: 11-Дек 21:56

Часовой пояс: UTC + 5



Вы не можете начинать темы
Вы не можете отвечать на сообщения
Вы не можете редактировать свои сообщения
Вы не можете удалять свои сообщения
Вы не можете голосовать в опросах
Вы не можете прикреплять файлы к сообщениям
Вы не можете скачивать файлы