Перекресток миров / Crossworlds (Кришна Рао / Krishna Rao) [1996, США, Фантастика, Приключения, DVDRip-AVC] DVO

Ответить на тему
 

mchls ®

Стаж: 6 лет 9 месяцев

Сообщений: 9

Перекресток миров / Crossworlds
Страна: США
Жанр: Фантастика, Приключения
Год выпуска: 1996
Продолжительность: 01:30:58
Перевод: Профессиональный (двухголосый закадровый)
Cубтитры: нет
Режиссер: Кришна Рао / Krishna Rao
В ролях: Рутгер Хауэр, Джош Чарльз, Стюарт Уилсон, Андреа Рот, Перри Анзилотти, Джек Блэк
Описание: Обычный американский парень по имени Джо Талбот неожиданно оказывается втянутым в фантастический круговорот событий, связанных с неким скипетром, являющимся ключом к другим измерениям, в которых уже тысячи лет длится магическая война. В фильме присутствует всё - стрельба, погони, драки, магия, прекрасная девушка, коварный злодей и неподражаемый Рутгер Хауэр в роли воина по имени Эй-Ти.
Доп. информация: Во всех представленных на трекере релизах данного фильма многоголосый перевод выполнен студией "Фортуна-фильм". В данном релизе перевод другой, чей конкретно - не знаю.
Качество видео: DVDRip-AVC
Формат видео: MKV
Видео: AVC, 720x544, 4:3, 23.976 fps, 2100 kbps
Аудио: AC3, 48 kHz, 192 kbps, 2.0 (L,R)

MediaInfo

Общее
Полное имя : Перекресток миров [1996].mkv
Формат : Matroska
Размер файла : 1,46 Гбайт
Продолжительность : 1 ч. 31 м.
Общий поток : 2292 Кбит/сек
Дата кодирования : UTC 2011-09-13 08:37:09
Программа кодирования : mkvmerge v4.9.1 ('Ich will') сборка от Jul 11 2011 23:53:15
Библиотека кодирования : libebml v1.2.1 + libmatroska v1.1.1
Видео
Идентификатор : 1
Формат : AVC
Формат/Информация : Advanced Video Codec
Профиль формата : [email protected]
Параметр CABAC формата : Да
Параметр ReFrames формата : 16 кадры
Идентификатор кодека : V_MPEG4/ISO/AVC
Продолжительность : 1 ч. 31 м.
Битрейт : 2100 Кбит/сек
Ширина : 720 пикс.
Высота : 544 пикс.
Соотношение сторон : 4:3
Частота кадров : 23,976 кадр/сек
Цветовое пространство : YUV
Подвыборка цветности : 4:2:0
Битовая глубина : 8 бит
Тип развёртки : Прогрессивная
Бит/(Пиксели*Кадры) : 0.224
Размер потока : 1,31 Гбайт (90%)
Библиотека кодирования : x264 core 114 r1913bm 5fd3dce
Настройки программы : cabac=1 / ref=16 / deblock=1:0:0 / analyse=0x3:0x133 / me=umh / subme=10 / psy=1 / psy_rd=1.00:0.00 / mixed_ref=1 / me_range=24 / chroma_me=1 / trellis=2 / 8x8dct=1 / cqm=0 / deadzone=21,11 / fast_pskip=1 / chroma_qp_offset=-2 / threads=3 / sliced_threads=0 / nr=0 / decimate=1 / interlaced=0 / constrained_intra=0 / bframes=8 / b_pyramid=2 / b_adapt=2 / b_bias=0 / direct=3 / weightb=1 / open_gop=0 / weightp=2 / keyint=250 / keyint_min=23 / scenecut=40 / intra_refresh=0 / rc_lookahead=60 / rc=2pass / mbtree=1 / bitrate=2100 / ratetol=1.0 / qcomp=0.60 / qpmin=0 / qpmax=69 / qpstep=4 / cplxblur=20.0 / qblur=0.5 / ip_ratio=1.40 / aq=1:1.00
Язык : English
Аудио
Идентификатор : 2
Формат : AC-3
Формат/Информация : Audio Coding 3
Расширение режима : CM (complete main)
Идентификатор кодека : A_AC3
Продолжительность : 1 ч. 31 м.
Вид битрейта : Постоянный
Битрейт : 192 Кбит/сек
Канал(ы) : 2 канала(ов)
Расположение каналов : Front: L R
Частота : 48,0 КГц
Битовая глубина : 16 бит
Метод сжатия : С потерями
Размер потока : 125 Мбайт (8%)
Язык : Russian
Меню
00:00:00.000 : :(безымянный)
00:06:40.000 : :(безымянный)
00:14:11.000 : :(безымянный)
00:21:44.000 : :(безымянный)
00:28:35.000 : :(безымянный)
00:39:32.000 : :(безымянный)
00:50:21.000 : :(безымянный)
00:59:32.000 : :(безымянный)
01:09:58.000 : :(безымянный)
01:23:03.000 : :(безымянный)

Скриншоты






Последний раз редактировалось: mchls (2012-09-16 15:38), всего редактировалось 1 раз

Создавать темы 16-Сен-2012 14:39

[Профиль]  [ЛС] 

McFLY

Стаж: 5 лет 7 месяцев

Сообщений: 658

Симпатии: 22

mchls, спасибо!!!

Создавать темы 16-Сен-2012 15:16

[Профиль]  [ЛС] 

mchls ®

Стаж: 6 лет 9 месяцев

Сообщений: 9

Да, пожалуйста :)

Создавать темы 16-Сен-2012 22:20

[Профиль]  [ЛС] 
Показать сообщения:    
Ответить на тему

Текущее время: 22-Окт 16:59

Часовой пояс: UTC + 5



Вы не можете начинать темы
Вы не можете отвечать на сообщения
Вы не можете редактировать свои сообщения
Вы не можете удалять свои сообщения
Вы не можете голосовать в опросах
Вы не можете прикреплять файлы к сообщениям
Вы не можете скачивать файлы