Обитель зла: Пенталогия - Resident Evil: Pentalogy (Пол У. С. Андерсон, Александр Уитт, Рассел Малкэй) [2002-2004-2007-2010-2012 г.г, Ужасы / Фантастика / Боевик / Триллер / Приключения, BDRip]

Страницы :  1, 2, 3, 4  След.

Ответить на тему
 

Kubaev_Muhiddin ®

Стаж: 6 лет 9 месяцев

Сообщений: 104

Симпатии: 34

Обитель зла / Resident Evil
Год выпуска: 2002
Страна: Великобритания, Германия, Франция, США
Жанр: Ужасы / Фантастика / Боевик / Триллер / Приключения
Продолжительность: 01:40:39
Перевод: Профессиональный (полное дублирование)
Режиссер: Пол У. С. Андерсон
Сценарий: Пол У. С. Андерсон
Продюсер: Пол У. С. Андерсон, Джереми Болт, Бернд Айхингер
Премьера в мире: 12 марта 2002
Бюджет: 33 000 000 $
Маркетинг 20 000 000 $
Сборы в США 40 119 709 $
Сборы в мире + 62 321 369 $ = 102 441 078 $
В ролях: Милла Йовович, Мишель Родригес, Эрик Мэбиас, Джеймс Пьюрфой, Мартин Крюз, Колин Сэлмон, Райан МакКласки, Оскар Пирс, Индра Ове, Анна Болт
Описание: В гигантской подземной лаборатории на волю вырывается опаснейший вирус, мгновенно превращая своих жертв в прожорливых зомби. Достаточно одного их укуса или царапины страшных когтей, чтобы человек стал обезумевшим пожирателем живой плоти.
Военные посылают в секретный комплекс, кишащий ужасными мутировавшими животными и голодными монстрами, группу спецназа, к которой присоединяются очаровательная Элис и отважный полицейский Мэтт. У них есть только три часа, чтобы уничтожить вирус до того, как он распространится по всей Земле…
Качество: BDRip
Формат: MKV
Видео кодек: V_MPEG4/ISO/AVC
Аудио кодек: A_DTS (Digital Theater Systems)
Видео: MPEG4 Video (H264) 1920x1040 23.976 fps 9 569 kbps
Аудио #1: DTS 48000 Hz 6 ch. 755 kbps Dubbed Russian
Аудио #2: DTS 48000 Hz 6 ch. 1 510 kbps English
Субтитр: SSA (Sub Station Alpha) Lossless Russian

Медиа инфо

Video
ID : 1
Format : AVC
Format/Info : Advanced Video Codec
Format profile : [email protected]
Format settings, CABAC : Yes
Format settings, ReFrames : 11 frames
Codec ID : V_MPEG4/ISO/AVC
Duration : 1h 40mn
Bit rate : 9 569 Kbps
Width : 1 920 pixels
Height : 1 040 pixels
Display aspect ratio : 1.85:1
Frame rate : 23.976 fps
Color space : YUV
Chroma subsampling : 4:2:0
Bit depth : 8 bits
Scan type : Progressive
Bits/(Pixel*Frame) : 0.200
Stream size : 6.56 GiB (79%)
Writing library : x264 core 56 svn-681
Encoding settings : cabac=1 / ref=8 / deblock=1:-2:-1 / analyse=0x3:0x133 / me=umh / fpel_cmp=sad / subme=6 / me-prepass=0 / brdo=1 / mixed_ref=1 / me_range=16 / chroma_me=1 / trellis=2 / 8x8dct=1 / cqm=2 / deadzone=21,11 / chroma_qp_offset=0 / threads=3 / nr=0 / decimate=0 / mbaff=0 / bframes=2 / b_pyramid=1 / b_adapt=1 / b_bias=0 / direct=3 / wpredb=1 / bime=1 / keyint=250 / keyint_min=25 / scenecut=40(pre) / rc=2pass / bitrate=9569 / ratetol=1.0 / rceq='blurCplx^(1-qComp)' / qcomp=0.60 / qpmin=10 / qpmax=51 / qpstep=4 / cplxblur=20.0 / qblur=0.5 / ip_ratio=1.40 / pb_ratio=1.30
Language : English
Default : Yes
Forced : No
Audio #1
ID : 2
Format : DTS
Format/Info : Digital Theater Systems
Codec ID : A_DTS
Duration : 1h 40mn
Bit rate mode : Constant
Bit rate : 755 Kbps
Channel(s) : 6 channels
Channel positions : Front: L C R, Side: L R, LFE
Sampling rate : 48.0 KHz
Bit depth : 24 bits
Compression mode : Lossy
Stream size : 543 MiB (6%)
Title : DTS 5.1, 768kbps (Dubbed)
Language : Russian
Default : No
Forced : No
Audio #2
ID : 3
Format : DTS
Format/Info : Digital Theater Systems
Codec ID : A_DTS
Duration : 1h 40mn
Bit rate mode : Constant
Bit rate : 1 510 Kbps
Channel(s) : 6 channels
Channel positions : Front: L C R, Side: L R, LFE
Sampling rate : 48.0 KHz
Bit depth : 24 bits
Compression mode : Lossy
Stream size : 1.06 GiB (13%)
Title : DTS 5.1, 1536kbps
Language : English
Default : Yes
Forced : No
Text
ID : 4
Format : SSA
Codec ID : S_TEXT/SSA
Codec ID/Info : Sub Station Alpha
Compression mode : Lossless
Language : Russian
Default : Yes
Forced : No

Скриншоты



Обитель зла 2: Апокалипсис / Resident Evil 2: Apocalypse
Год выпуска: 2004
Страна: Германия, Франция, Великобритания, Канада, США
Жанр: Ужасы / Фантастика / Боевик / Триллер / Приключения
Продолжительность: 01:33:49
Перевод: Профессиональный (полное дублирование)
Режиссер: Александр Уитт
Сценарий: Пол У. С. Андерсон
Продюсер: Пол У. С. Андерсон, Джереми Болт, Дон Кармоди
Премьера в мире: 10 сентября 2004
Бюджет: 45 000 000 $
Маркетинг 25 000 000 $
Сборы в США 51 201 453 $
Сборы в мире + 78 193 382 $ = 129 394 835 $
В ролях: Милла Йовович, Сиенна Гиллори, Одед Фер, Томас Кречманн, Софи Вавасо, Разаак Адоти, Джаред Харрис, Майк Эппс, Сандрин Холт, Мэттью Дж. Тейлор
Описание: Действие картины разворачивается на улицах печально известного Ракун-сити, города, контролируемого могущественной корпорацией «Амбрелла».
После бактериологической катастрофы все жители стали медленно превращаться в зомби, а те немногочисленные граждане, чей разум ещё не был до конца изъеден ужасным вирусом, доживали свои последние дни в атмосфере страха и желания скорейшей смерти…
Качество: BDRip
Формат: MKV
Видео кодек: V_MPEG4/ISO/AVC
Аудио кодек: A_AC3
Видео: MPEG4 Video (H264) 1920x800 23.976 fps 11.5 mbps
Аудио: Dolby AC3 48000Hz 6 ch. 384 kbps Dubbed Russian
Субтитр #1: S_VOBSUB (The same subtitle format used on DVDs) Russian
Субтитр #2: SSA (Sub Station Alpha) Lossless English

Медиа инфо

Video
ID : 1
Format : AVC
Format/Info : Advanced Video Codec
Format profile : [email protected]
Format settings, CABAC : Yes
Format settings, ReFrames : 8 frames
Codec ID : V_MPEG4/ISO/AVC
Duration : 1h 33mn
Bit rate : 11.5 Mbps
Width : 1 920 pixels
Height : 800 pixels
Display aspect ratio : 2.40:1
Frame rate : 23.976 fps
Color space : YUV
Chroma subsampling : 4:2:0
Bit depth : 8 bits
Scan type : Progressive
Bits/(Pixel*Frame) : 0.312
Stream size : 7.37 GiB (95%)
Writing library : x264 core 56 svn-667C
Encoding settings : cabac=1 / ref=5 / deblock=1:-2:-2 / analyse=0x3:0x133 / me=umh / subme=7 / brdo=1 / mixed_ref=1 / me_range=16 / chroma_me=1 / trellis=1 / 8x8dct=1 / cqm=0 / deadzone=21,11 / chroma_qp_offset=0 / threads=3 / nr=0 / decimate=1 / mbaff=0 / bframes=3 / b_pyramid=1 / b_adapt=1 / b_bias=0 / direct=3 / wpredb=1 / bime=1 / keyint=240 / keyint_min=24 / scenecut=40(pre) / rc=2pass / bitrate=11484 / ratetol=1.0 / rceq='blurCplx^(1-qComp)' / qcomp=0.60 / qpmin=10 / qpmax=51 / qpstep=4 / cplxblur=20.0 / qblur=0.5 / ip_ratio=1.40 / pb_ratio=1.30
Language : English
Default : Yes
Forced : No
Audio
ID : 2
Format : AC-3
Format/Info : Audio Coding 3
Mode extension : CM (complete main)
Format settings, Endianness : Big
Codec ID : A_AC3
Duration : 1h 33mn
Bit rate mode : Constant
Bit rate : 384 Kbps
Channel(s) : 6 channels
Channel positions : Front: L C R, Side: L R, LFE
Sampling rate : 48.0 KHz
Bit depth : 16 bits
Compression mode : Lossy
Stream size : 258 MiB (3%)
Language : Russian
Default : Yes
Forced : No
Text #1
ID : 3
Format : VobSub
Muxing mode : zlib
Codec ID : S_VOBSUB
Codec ID/Info : The same subtitle format used on DVDs
Language : Russian
Default : Yes
Forced : No
Text #2
ID : 4
Format : ASS
Codec ID : S_TEXT/ASS
Codec ID/Info : Advanced Sub Station Alpha
Compression mode : Lossless
Language : English
Default : No
Forced : No

Скриншоты



Обитель зла 3: Вымирание / Resident Evil 3: Extinction
Год выпуска: 2007
Страна: Франция, Австралия, Германия, Великобритания, США
Жанр: Ужасы / Фантастика / Боевик / Триллер / Приключения
Продолжительность: 01:34:05
Перевод: Профессиональный (полное дублирование)
Режиссер: Рассел Малкэй
Сценарий: Пол У. С. Андерсон
Продюсер: Пол У. С. Андерсон, Джереми Болт, Бернд Айхингер
Премьера в мире: 21 сентября 2007
Бюджет: 45 000 000 $
Сборы в США 50 648 679 $
Сборы в мире + 97 069 154 $ = 147 717 833 $
В ролях: Милла Йовович, Одед Фер, Эли Лартер, Айэйн Глен, Ашанти, Кристофер Иган, Спенсер Локк, Мэттью Мэрсден, Линден Эшби, Джейсон О’Мара
Описание: Элис, не раз уже спасавшая мир от смертельных вирусов и неминуемой гибели, вновь взялась за оружие. На этот раз ей предстоит сразиться с корпорацией «Амбрелла», работающей над реализацией зверского антигуманного проекта. Коварные политики и прагматичные ученые стремятся уничтожить людей и заменить их на более «совершенные» создания, заселив Землю неуязвимыми бессмертными клонами…
Качество: BDRip
Формат: MKV
Видео кодек: V_MPEG4/ISO/AVC
Аудио кодек: A_DTS (Digital Theater Systems)
Видео: MPEG4 Video (H264) 1920x800 23.976 fps 10.6 mbps
Аудио #1: DTS 48000 Hz 6 ch. 755 kbps Dubbed Russian
Аудио #2: DTS 48000 Hz 6 ch. 1 510 kbps English
Субтитр: SSA (Sub Station Alpha) Lossless English

Медиа инфо

Video
ID : 1
Format : AVC
Format/Info : Advanced Video Codec
Format profile : [email protected]
Format settings, CABAC : Yes
Format settings, ReFrames : 7 frames
Codec ID : V_MPEG4/ISO/AVC
Duration : 1h 34mn
Bit rate : 10.6 Mbps
Width : 1 920 pixels
Height : 800 pixels
Display aspect ratio : 2.40:1
Frame rate : 23.976 fps
Color space : YUV
Chroma subsampling : 4:2:0
Bit depth : 8 bits
Scan type : Progressive
Bits/(Pixel*Frame) : 0.287
Stream size : 6.77 GiB (80%)
Title : Resident.Evil.3.BDRip.1080p.x264
Writing library : x264 core 56 svn-680
Encoding settings : cabac=1 / ref=4 / deblock=1:-3:-3 / analyse=0x3:0x133 / me=umh / subme=7 / brdo=1 / mixed_ref=1 / me_range=16 / chroma_me=1 / trellis=1 / 8x8dct=1 / cqm=2 / deadzone=21,11 / chroma_qp_offset=0 / threads=6 / nr=0 / decimate=1 / mbaff=0 / bframes=16 / b_pyramid=1 / b_adapt=1 / b_bias=0 / direct=3 / wpredb=1 / bime=1 / keyint=250 / keyint_min=25 / scenecut=40(pre) / rc=2pass / bitrate=10554 / ratetol=1.0 / rceq='blurCplx^(1-qComp)' / qcomp=0.60 / qpmin=10 / qpmax=51 / qpstep=4 / cplxblur=20.0 / qblur=0.5 / ip_ratio=1.40 / pb_ratio=1.30 / aq=1:0.3:15.0
Language : English
Default : Yes
Forced : No
Audio #1
ID : 2
Format : DTS
Format/Info : Digital Theater Systems
Codec ID : A_DTS
Duration : 1h 34mn
Bit rate mode : Constant
Bit rate : 755 Kbps
Channel(s) : 6 channels
Channel positions : Front: L C R, Side: L R, LFE
Sampling rate : 48.0 KHz
Bit depth : 24 bits
Compression mode : Lossy
Stream size : 508 MiB (6%)
Title : DTS 5.1, 768 kbps
Language : Russian
Default : Yes
Forced : No
Audio #2
ID : 3
Format : DTS
Format/Info : Digital Theater Systems
Codec ID : A_DTS
Duration : 1h 34mn
Bit rate mode : Constant
Bit rate : 1 510 Kbps
Channel(s) : 6 channels
Channel positions : Front: L C R, Side: L R, LFE
Sampling rate : 48.0 KHz
Bit depth : 24 bits
Compression mode : Lossy
Stream size : 1 016 MiB (12%)
Title : DTS 5.1, 1536 kbps
Language : English
Default : No
Forced : No

Скриншоты



Обитель зла 4: Жизнь после смерти / Resident evil 4: Afterlife
Год выпуска: 2010
Страна: Германия, Франция, США
Жанр: Ужасы / Фантастика / Боевик / Триллер / Приключения
Продолжительность: 01:36:53
Перевод: Профессиональный (полное дублирование)
Режиссер: Пол У. С. Андерсон
Сценарий: Пол У. С. Андерсон
Продюсер: Пол У. С. Андерсон, Джереми Болт, Дон Кармоди
Премьера в мире: 2 сентября 2010
Бюджет: 60 000 000 $
Сборы в США 60 128 566 $
Сборы в мире + 236 093 000 $ = 296 221 566 $
В ролях: Милла Йовович, Эли Лартер, Ким Коутс, Шоун Робертс, Серджо Перис-Менчета, Спенсер Локк, Борис Коджо, Вентворт Миллер, Сиенна Гиллори, Кейси Барнфилд
Описание: Элис продолжает свой путь в мире, поражённом вирусной инфекцией, превращающей людей в нежить. Героиня ищет оставшихся в живых, чтобы вывести их в безопасное место. Её смертельная битва с корпорацией Амбрелла выходит на новый уровень…
Качество: BDRip
Формат: MKV
Видео кодек: V_MPEG4/ISO/AVC
Аудио кодек: A_AC3, A_DTS (Digital Theater Systems)
Видео: MPEG4 Video (H264) 1280x532 23.976 fps 10.6 mbps
Аудио #1: Dolby AC3 48000 Hz 6ch. 448 kbps Dubbed Russian
Аудио #2: DTS 48000 Hz 6 ch. 1 510 kbps English

Медиа инфо

Video
ID : 1
Format : AVC
Format/Info : Advanced Video Codec
Format profile : [email protected]
Format settings, CABAC : Yes
Format settings, ReFrames : 11 frames
Codec ID : V_MPEG4/ISO/AVC
Duration : 1h 36mn
Bit rate : 4 945 Kbps
Width : 1 280 pixels
Height : 532 pixels
Display aspect ratio : 2.40:1
Frame rate : 23.976 fps
Color space : YUV
Chroma subsampling : 4:2:0
Bit depth : 8 bits
Scan type : Progressive
Bits/(Pixel*Frame) : 0.303
Stream size : 3.24 GiB (70%)
Writing library : x264 core 98 r1649 20cbe10
Encoding settings : cabac=1 / ref=11 / deblock=1:-3:-3 / analyse=0x3:0x113 / me=umh / subme=10 / psy=1 / psy_rd=1.00:0.00 / mixed_ref=1 / me_range=64 / chroma_me=1 / trellis=2 / 8x8dct=1 / cqm=0 / deadzone=21,11 / fast_pskip=0 / chroma_qp_offset=-2 / threads=9 / sliced_threads=0 / nr=0 / decimate=0 / interlaced=0 / constrained_intra=0 / bframes=8 / b_pyramid=2 / b_adapt=2 / b_bias=0 / direct=3 / weightb=1 / weightp=2 / keyint=250 / keyint_min=25 / scenecut=40 / intra_refresh=0 / rc_lookahead=50 / rc=2pass / mbtree=1 / bitrate=4945 / ratetol=1.0 / qcomp=0.60 / qpmin=10 / qpmax=51 / qpstep=4 / cplxblur=20.0 / qblur=0.5 / vbv_maxrate=50000 / vbv_bufsize=50000 / ip_ratio=1.40 / aq=1:0.90 / nal_hrd=none
Language : English
Default : Yes
Forced : No
Audio #1
ID : 2
Format : AC-3
Format/Info : Audio Coding 3
Mode extension : CM (complete main)
Format settings, Endianness : Big
Codec ID : A_AC3
Duration : 1h 36mn
Bit rate mode : Constant
Bit rate : 448 Kbps
Channel(s) : 6 channels
Channel positions : Front: L C R, Side: L R, LFE
Sampling rate : 48.0 KHz
Bit depth : 16 bits
Compression mode : Lossy
Stream size : 310 MiB (7%)
Title : AC3 5.1 @ 448 kbps - Дублированный, R5
Language : Russian
Default : Yes
Forced : No
Audio #2
ID : 3
Format : DTS
Format/Info : Digital Theater Systems
Codec ID : A_DTS
Duration : 1h 36mn
Bit rate mode : Constant
Bit rate : 1 510 Kbps
Channel(s) : 6 channels
Channel positions : Front: L C R, Side: L R, LFE
Sampling rate : 48.0 KHz
Bit depth : 16 bits
Compression mode : Lossy
Stream size : 1.02 GiB (22%)
Title : DTS 5.1 @ 1536 kbps - Оригинал
Language : English
Default : No
Forced : No

Скриншоты



Обитель зла 5: Возмездие / Resident evil 5: Retribution
Год выпуска: 2012
Страна: Германия, Канада
Жанр: Ужасы / Фантастика / Боевик / Триллер / Приключения
Продолжительность: 01:35:38
Перевод: Профессиональный (полное дублирование)
Режиссер: Пол У. С. Андерсон
Сценарий: Пол У. С. Андерсон
Продюсер: Пол У. С. Андерсон, Джереми Болт, Дон Кармоди
Премьера в мире: 3 сентября 2012
Бюджет: 65 000 000 $
Сборы в США 42 345 531 $
Сборы в мире + 179 465 258 $ = 221 810 789 $
В ролях: Милла Йовович, Сиенна Гиллори, Мишель Родригес, Ариана Энджинир, Ли Бинбин, Борис Коджо, Йохан Урб, Робин Касянов, Кевин Дюран, Офилио Портильо
Описание: Смертельный T-вирус, созданный в лабораториях корпорации «Амбрелла», продолжает захватывать Землю, превращая мировое население в легионы пожирающих плоть зомби. Последняя надежда человечества Элис внедряется в самое сердце самой тайной исследовательской базы корпорации и узнает еще больше о собственном таинственном прошлом. Не имея путей к отступлению, Элис продолжает искать виновных в глобальной катастрофе. Вызов, который она принимала в Токио, Нью-Йорке, Вашингтоне и даже в Москве, приводит ее в итоге к взрывающему сознание откровению, которое заставит ее переосмыслить все, что она полагала правдой. С помощью новых союзников и старых друзей, Элис будет сражаться за выживание и убегать из враждебного мира. Отсчет времени начат…
Качество: BDRip
Формат: MKV
Видео кодек: V_MPEG4/ISO/AVC
Аудио кодек: A_AC3
Видео: MPEG4 Video (H264) 1280x528 (1280:533) 23.976 fps 2 634 kbps
Аудио: Dolby AC3 48000 Hz 6ch. 448 kbps дубляж Russian

Медиа инфо

Video
ID : 1
Format : AVC
Format/Info : Advanced Video Codec
Format profile : [email protected]
Format settings, CABAC : Yes
Format settings, ReFrames : 4 frames
Codec ID : V_MPEG4/ISO/AVC
Duration : 1h 35mn
Bit rate : 2 634 Kbps
Width : 1 280 pixels
Height : 528 pixels
Display aspect ratio : 2.40:1
Original display aspect ratio : 2.40:1
Frame rate mode : Constant
Frame rate : 23.976 fps
Color space : YUV
Chroma subsampling : 4:2:0
Bit depth : 8 bits
Scan type : Progressive
Bits/(Pixel*Frame) : 0.163
Stream size : 1.71 GiB (78%)
Title : Обитель зла: Возмездие
Writing library : x264 core 129 r2230 1cffe9f
Encoding settings : cabac=1 / ref=3 / deblock=1:0:0 / analyse=0x3:0x113 / me=hex / subme=7 / psy=1 / psy_rd=1.00:0.00 / mixed_ref=1 / me_range=16 / chroma_me=1 / trellis=1 / 8x8dct=1 / cqm=0 / deadzone=21,11 / fast_pskip=1 / chroma_qp_offset=-2 / threads=12 / lookahead_threads=2 / sliced_threads=0 / nr=0 / decimate=1 / interlaced=0 / bluray_compat=0 / constrained_intra=0 / bframes=3 / b_pyramid=2 / b_adapt=1 / b_bias=0 / direct=1 / weightb=1 / open_gop=0 / weightp=2 / keyint=240 / keyint_min=23 / scenecut=40 / intra_refresh=0 / rc_lookahead=40 / rc=2pass / mbtree=1 / bitrate=2634 / ratetol=1.0 / qcomp=0.60 / qpmin=10 / qpmax=51 / qpstep=4 / cplxblur=20.0 / qblur=0.5 / ip_ratio=1.40 / aq=1:1.00
Language : English
Default : Yes
Forced : No
Audio
ID : 2
Format : AC-3
Format/Info : Audio Coding 3
Mode extension : CM (complete main)
Format settings, Endianness : Big
Codec ID : A_AC3
Duration : 1h 35mn
Bit rate mode : Constant
Bit rate : 640 Kbps
Channel(s) : 6 channels
Channel positions : Front: L C R, Side: L R, LFE
Sampling rate : 48.0 KHz
Bit depth : 16 bits
Compression mode : Lossy
Stream size : 438 MiB (20%)
Title : Дубляж
Language : Russian
Default : Yes
Forced : No

Скриншоты






Последний раз редактировалось: Kubaev_Muhiddin (2013-08-09 00:44), всего редактировалось 6 раз(а)

Создавать темы 21-Сен-2012 00:59

[Профиль]  [ЛС] 

Топик был перенесен из форума HD-AVC в форум Зарубежное кино

ziyod

Создавать темы 21-Сен-2012 06:32

 

DMiTRY

Стаж: 6 лет 6 месяцев

Сообщений: 649

Симпатии: 28

могу залить первые 3 части в BD-REMUX,если будут желающие.

Создавать темы 21-Сен-2012 12:30

[Профиль]  [ЛС] 

Kubaev_Muhiddin ®

Стаж: 6 лет 9 месяцев

Сообщений: 104

Симпатии: 34

DMiTRY, заливай будем качать

Создавать темы 21-Сен-2012 19:51

[Профиль]  [ЛС] 

DMiTRY

Стаж: 6 лет 6 месяцев

Сообщений: 649

Симпатии: 28

DMiTRY, заливай будем качать
потяните 75гб ?:)

Создавать темы 21-Сен-2012 20:14

[Профиль]  [ЛС] 

garold_acid

Стаж: 5 лет 2 месяца

Сообщений: 6

Народ, дайте скорости плиз!

Создавать темы 22-Сен-2012 15:04

[Профиль]  [ЛС] 

garold_acid

Стаж: 5 лет 2 месяца

Сообщений: 6

4 КБ/s ппц... 8 недель на скачку. дайте скорости!!!

Создавать темы 22-Сен-2012 16:16

[Профиль]  [ЛС] 

Дмитриев

Стаж: 7 лет 5 месяцев

Сообщений: 139

Симпатии: 12

Kubaev_Muhiddin,
малоч

Создавать темы 25-Сен-2012 22:53

[Профиль]  [ЛС] 

Kubaev_Muhiddin ®

Стаж: 6 лет 9 месяцев

Сообщений: 104

Симпатии: 34

Kubaev_Muhiddin,
малоч
Стараюсь

Создавать темы 26-Сен-2012 00:11

[Профиль]  [ЛС] 

hacker

Стаж: 5 лет 2 месяца

Сообщений: 104

Симпатии: 68

пожалуйста добавите Скоростью а то 1 лет качаю =(

Создавать темы 18-Окт-2012 21:06

[Профиль]  [ЛС] 

Psymantis

Стаж: 5 лет 6 месяцев

Сообщений: 113

Симпатии: 8

какой смысл в 1080p рипа с брурея если на брурейках качество 720p. Я гарантирую что запустив рип 720p на мониторе с 1080p качество будет идентично к этому. По скринам явно видно у тех что 1080p качество анаморфная (растянутая). Советую Resident Evil 1, 2, 3 тянут c этого релиза.

Создавать темы 19-Окт-2012 13:37

[Профиль]  [ЛС] 

djek

Стаж: 5 лет 11 месяцев

Сообщений: 90

Симпатии: 4

пожалуйста добавите Скоростью а то 1 лет качаю =(
я согласен, добавьте скорость кто скачал !
Kubaev_Muhiddin спс за релиз нажми газа !

Создавать темы 11-Ноя-2012 19:14

[Профиль]  [ЛС] 

djek

Стаж: 5 лет 11 месяцев

Сообщений: 90

Симпатии: 4

4 КБ/s ппц... 8 недель на скачку. дайте скорости!!!
согласен , что за .....на , дайте скорость .

Создавать темы 29-Ноя-2012 20:47

[Профиль]  [ЛС] 

star__scrim

Стаж: 7 лет 9 месяцев

Сообщений: 41

Kubaev_Muhiddin, спасибо, первые три скачаю, четвертая у меня есть, жалко что у пятой части вес маловат.

Создавать темы 25-Дек-2012 21:15

[Профиль]  [ЛС] 

D.K.

Стаж: 5 лет 7 месяцев

Сообщений: 22

Симпатии: 1

первые три части в DVDRip есть у кого нибудь?

Создавать темы 25-Дек-2012 21:38

[Профиль]  [ЛС] 
Показать сообщения:    
Ответить на тему

Текущее время: 22-Ноя 21:51

Часовой пояс: UTC + 5



Вы не можете начинать темы
Вы не можете отвечать на сообщения
Вы не можете редактировать свои сообщения
Вы не можете удалять свои сообщения
Вы не можете голосовать в опросах
Вы не можете прикреплять файлы к сообщениям
Вы не можете скачивать файлы