Пираты Силиконовой Долины / Pirates of Silicon Valley (Мартин Бурк) [1999г., драма, DVDRip]

Ответить на тему
 

Dextermorgan ®

Стаж: 5 лет

Сообщений: 8

Пираты Силиконовой Долины / Pirates of Silicon Valley
Год выпуска: 1999
Страна: США
Жанр: драма
Продолжительность: 01:36:45
язык: русский
озвучивание: Профессиональный (многоголосый, закадровый)
Режиссер: Мартин Бурк
В ролях: Энтони Майкл Холл, Ной Уайл, Джои Слотник, Джон Ди Маджио, Джош Хопкинс, Джема Зампрогна, Бодхи Элфмэн
Описание: История покорения мира компьютерными гениями — Биллом Гейтсом и Стивом Джобсом. Революция случилась, когда ее никто не ждал. Все началось на заре восьмидесятых, в маленьких подсобных помещениях, где двое никому не известных программистов изобретали и фантазировали.
Они мечтали о том, что когда — нибудь об их проектах, казавшихся в то время невероятными, узнает весь мир. Спустя несколько лет мечты стали реальностью. Вчерашние фантазеры превратились в миллиардеров, основав свои собственные империи, Джобс — компанию Apple, а Гейтс — Microsoft…
Качество: DVDRip
Формат: AVI
Видео кодек: DivX
Аудио кодек: AC3
Видео: 688x512, 1952 Kbps, 23.976 fps
Аудио: AC3 (192 kbps), 2 channels

Media Info

Video
ID: 0
Format: MPEG-4 Visual
Format profile : Advanced [email protected]
Format settings, BVOP : 1
Format settings, QPel : No
Format settings, GMC: No warppoints
Format settings, Matrix : Custom
Codec ID: XVID
Codec ID/Hint : XviD
Duration : 1h 36mn
Bit rate : 1 952 Kbps
Width : 688 pixels
Height : 512 pixels
Display aspect ratio : 4:3
Frame rate: 23.976 fps
Color space : YUV
Chroma subsampling : 4:2:0
Bit depth : 8 bits
Scan type : Progressive
Compression mode : Lossy
Bits/(Pixel*Frame) : 0.231
Stream size : 1.32 GiB (91%)
Writing library : XviD 1.2.1 (UTC 2008-12-04)
Audio
ID : 1
Format : AC-3
Format/Info : Audio Coding 3
Mode extension : CM (complete main)
Codec ID : 2000
Duration : 1h 36mn
Bit rate mode : Constant
Bit rate : 192 Kbps
Channel(s) : 2 channels
Channel positions : Front: L R
Sampling rate : 48.0 KHz
Bit depth : 16 bits
Compression mode : Lossy
Stream size : 133 MiB (9%)
Alignment : Split accross interleaves
Interleave, duration : 42 ms (1.00 video frame)
Interleave, preload duration : 500 ms

Скриншоты



Последний раз редактировалось: Dextermorgan (2012-09-21 22:44), всего редактировалось 2 раз(а)

Создавать темы 21-Сен-2012 14:12

[Профиль]  [ЛС] 

victor0778

Стаж: 6 лет 7 месяцев

Сообщений: 1670

Симпатии: 142

Сриншоты по указаным вами размерам залейте

Создавать темы 21-Сен-2012 14:59

[Профиль]  [ЛС] 

SpreaD

Стаж: 6 лет 5 месяцев

Сообщений: 24

Симпатии: 3

раздавать когда будем ?

Создавать темы 23-Сен-2012 00:19

[Профиль]  [ЛС] 

D-22

Стаж: 5 лет 4 месяца

Сообщений: 23

давай раздачу скачать надо

Создавать темы 23-Сен-2012 01:11

[Профиль]  [ЛС] 

Rustam310

Стаж: 6 лет 3 месяца

Сообщений: 14

Симпатии: 1

Братан давай скачать, кажется фильм отличный

Создавать темы 06-Окт-2012 09:51

[Профиль]  [ЛС] 

Тимоха

Стаж: 6 лет 2 месяца

Сообщений: 42

Симпатии: 1

Фильм отличный, особенно интересен тем, кто эту историю немного знает, ну и для ITшников))

Создавать темы 06-Окт-2012 22:53

[Профиль]  [ЛС] 

Doniyor_55

Стаж: 4 года 1 месяц

Сообщений: 14

фуфло

Создавать темы 20-Июн-2014 23:11

[Профиль]  [ЛС] 

Doniyor_55

Стаж: 4 года 1 месяц

Сообщений: 14

бляаа

Создавать темы 20-Июн-2014 23:12

[Профиль]  [ЛС] 

yahooo

Стаж: 5 лет 8 месяцев

Сообщений: 72

Симпатии: 7

дайте скорость хочу посмотреть

Создавать темы 26-Окт-2016 15:53

[Профиль]  [ЛС] 
Показать сообщения:    
Ответить на тему

Текущее время: 23-Сен 07:06

Часовой пояс: UTC + 5



Вы не можете начинать темы
Вы не можете отвечать на сообщения
Вы не можете редактировать свои сообщения
Вы не можете удалять свои сообщения
Вы не можете голосовать в опросах
Вы не можете прикреплять файлы к сообщениям
Вы не можете скачивать файлы