Хижина в лесу / The Cabin in the Woods (Дрю Годдард) [2011 г., ужасы, триллер, BDRip 720p]

Страницы :  1, 2  След.

Ответить на тему
 

ziyod ®

Стаж: 7 лет 8 месяцев

Сообщений: 367

Симпатии: 60

--Хижина в лесу / The Cabin in the Woods
«Думаете, знакомая история?»
- Информация о фильме:
Год выпуска: 2011
Страна: США
Жанр: ужасы, триллер
Продолжительность: 01:35:00
Перевод: Профессиональный (полное дублирование) [лицензия]
Режиссер: Дрю Годдард-В ролях: Кристен Коннолли, Крис Хемсворт, Анна Хатчисон, Фрэн Кранц, Джесси Уильямс, Брэдли Уитфорд, Ричард Дженкинс, Сигурни Уивер, Брайан Дж. Уайт, Эми Эккер-Описание: Шумная компания из пяти друзей сбегает на уик-энд подебоширить в изолированную от всего мира деревенскую хижину. Звучит знакомо? Ну так вы и не представляете, что вас ждёт на самом деле.-Рейтинг:
     - -

Знаете ли вы, что...

  • Чтобы не позволить сюжетным секретам проникнуть в блогосферу, сценарий пришлось усиленно защищать: создатели фильма написали фальшивые сцены специально для кинопроб исполнителей главных ролей.
  • Уист и создатели фильма, исследуя старые фотографии, разработали аутентичный дизайн хижины времен «Золотой лихорадки» или периода после Гражданской войны.
  • Декорации центральной аппаратной были созданы в духе хай-тека 70-х и центра управления полетами НАСА в Хьюстоне.
  • Дизайнер по костюмам Шона Трпчик отразила контраст между деревенской хижиной и прилизанной центральной аппаратной при помощи тщательно подобранных цветов для одежды молодежи и взрослых.
-Файл:
Качество: BDRip 720p
Формат: MKV
Видео кодек: H.26x
Аудио кодек: AC3
Видео: 1 280 х 534; 4 500 Kbps; 2.40:1; 23.976 fps
Аудио №1: 448 Kbps; 6 ch; 48.0 KHz | Профессиональный (полное дублирование) |
Аудио №2: 448 Kbps; 6 ch; 48.0 KHz | Любительский (одноголосый) - zames |

Аудио №3: 448 Kbps; 6 ch; 48.0 KHz | Original |
Субтитры: Русский - full (voronine), русский (107miller), english-

MI

General
Unique ID                                : 226800531476168461289164792241392046250 (0xAAA0318909D14305BA12F94147EDD0AA)
Complete name                            : Hizhina.v.lesu.2011.x264.2xRus.Eng.BDRip.720p.mkv
Format                                   : Matroska
Format version                           : Version 2
File size                                : 3.88 GiB
Duration                                 : 1h 35mn
Overall bit rate                         : 5 843 Kbps
Movie name                               : -==ziyod==-
Encoded date                             : UTC 2012-09-24 09:23:28
Writing application                      : mkvmerge v5.6.0 ('Kenya Kane') built on May 27 2012 16:44:04
Writing library                          : libebml v1.2.3 + libmatroska v1.3.0
Video
ID                                       : 1
Format                                   : AVC
Format/Info                              : Advanced Video Codec
Format profile                           : [email protected]
Format settings, CABAC                   : Yes
Format settings, ReFrames                : 12 frames
Muxing mode                              : Header stripping
Codec ID                                 : V_MPEG4/ISO/AVC
Duration                                 : 1h 35mn
Bit rate                                 : 4 500 Kbps
Width                                    : 1 280 pixels
Height                                   : 534 pixels
Display aspect ratio                     : 2.40:1
Frame rate mode                          : Constant
Frame rate                               : 23.976 fps
Color space                              : YUV
Chroma subsampling                       : 4:2:0
Bit depth                                : 8 bits
Scan type                                : Progressive
Bits/(Pixel*Frame)                       : 0.275
Stream size                              : 2.91 GiB (75%)
Writing library                          : x264 core 125 r2208 d9d2288
Encoding settings                        : cabac=1 / ref=12 / deblock=1:-3:-3 / analyse=0x3:0x113 / me=umh / subme=11 / psy=1 / psy_rd=1.10:0.10 / mixed_ref=1 / me_range=32 / chroma_me=1 / trellis=2 / 8x8dct=1 / cqm=0 / deadzone=21,11 / fast_pskip=0 / chroma_qp_offset=-3 / threads=18 / lookahead_threads=3 / sliced_threads=0 / nr=0 / decimate=0 / interlaced=0 / bluray_compat=0 / constrained_intra=0 / bframes=8 / b_pyramid=2 / b_adapt=2 / b_bias=0 / direct=3 / weightb=1 / open_gop=0 / weightp=2 / keyint=240 / keyint_min=24 / scenecut=40 / intra_refresh=0 / rc_lookahead=120 / rc=2pass / mbtree=1 / bitrate=4500 / ratetol=1.0 / qcomp=0.70 / qpmin=0 / qpmax=69 / qpstep=4 / cplxblur=20.0 / qblur=0.5 / ip_ratio=1.30 / aq=1:1.10
Language                                 : English
Default                                  : Yes
Forced                                   : Yes
Audio #1
ID                                       : 2
Format                                   : AC-3
Format/Info                              : Audio Coding 3
Mode extension                           : CM (complete main)
Format settings, Endianness              : Big
Muxing mode                              : Header stripping
Codec ID                                 : A_AC3
Duration                                 : 1h 35mn
Bit rate mode                            : Constant
Bit rate                                 : 448 Kbps
Channel(s)                               : 6 channels
Channel positions                        : Front: L C R, Side: L R, LFE
Sampling rate                            : 48.0 KHz
Bit depth                                : 16 bits
Compression mode                         : Lossy
Stream size                              : 304 MiB (8%)
Title                                    : DUB
Language                                 : Russian
Default                                  : Yes
Forced                                   : Yes
Audio #2
ID                                       : 3
Format                                   : AC-3
Format/Info                              : Audio Coding 3
Mode extension                           : CM (complete main)
Format settings, Endianness              : Big
Muxing mode                              : Header stripping
Codec ID                                 : A_AC3
Duration                                 : 1h 35mn
Bit rate mode                            : Constant
Bit rate                                 : 448 Kbps
Channel(s)                               : 6 channels
Channel positions                        : Front: L C R, Side: L R, LFE
Sampling rate                            : 48.0 KHz
Bit depth                                : 16 bits
Compression mode                         : Lossy
Stream size                              : 304 MiB (8%)
Title                                    : LVO - zames
Language                                 : Russian
Default                                  : No
Forced                                   : No
Audio #3
ID                                       : 4
Format                                   : AC-3
Format/Info                              : Audio Coding 3
Mode extension                           : CM (complete main)
Format settings, Endianness              : Big
Muxing mode                              : Header stripping
Codec ID                                 : A_AC3
Duration                                 : 1h 35mn
Bit rate mode                            : Constant
Bit rate                                 : 448 Kbps
Channel(s)                               : 6 channels
Channel positions                        : Front: L C R, Side: L R, LFE
Sampling rate                            : 48.0 KHz
Bit depth                                : 16 bits
Compression mode                         : Lossy
Stream size                              : 304 MiB (8%)
Title                                    : Original
Language                                 : English
Default                                  : No
Forced                                   : No
Text #1
ID                                       : 5
Format                                   : UTF-8
Codec ID                                 : S_TEXT/UTF8
Codec ID/Info                            : UTF-8 Plain Text
Title                                    : Russian Full - voroninie
Language                                 : Russian
Default                                  : No
Forced                                   : No
Text #2
ID                                       : 6
Format                                   : UTF-8
Codec ID                                 : S_TEXT/UTF8
Codec ID/Info                            : UTF-8 Plain Text
Title                                    : Russian - 107miller
Language                                 : Russian
Default                                  : No
Forced                                   : No
Text #3
ID                                       : 7
Format                                   : UTF-8
Codec ID                                 : S_TEXT/UTF8
Codec ID/Info                            : UTF-8 Plain Text
Title                                    : English
Language                                 : English
Default                                  : No
Forced                                   : No
Menu
00:00:00.000                             : en:00:00:00.000
00:09:10.550                             : en:00:09:10.550
00:18:42.121                             : en:00:18:42.121
00:24:21.251                             : en:00:24:21.251
00:33:08.653                             : en:00:33:08.653
00:39:39.627                             : en:00:39:39.627
00:44:18.614                             : en:00:44:18.614
00:51:25.291                             : en:00:51:25.291
01:00:24.412                             : en:01:00:24.412
01:07:18.034                             : en:01:07:18.034
01:15:44.540                             : en:01:15:44.540
01:21:32.763                             : en:01:21:32.763
01:29:54.639                             : en:01:29:54.639
- --

Создавать темы 24-Сен-2012 22:02

[Профиль]  [ЛС] 

Morphing

Стаж: 5 лет 4 месяца

Сообщений: 211

Симпатии: 37

скорости дайте

Создавать темы 24-Сен-2012 22:30

[Профиль]  [ЛС] 

Robot-IX

Стаж: 5 лет 7 месяцев

Сообщений: 223

Симпатии: 9

отличный размер к качеству и ни чего лишнего...! спасибо.

Создавать темы 28-Сен-2012 10:29

[Профиль]  [ЛС] 

showtek

Стаж: 7 лет

Сообщений: 68

Симпатии: 2

советую к просмотру всем любителям не тупых ужастиков )

Создавать темы 29-Сен-2012 21:53

[Профиль]  [ЛС] 

arang

Стаж: 5 лет 1 месяц

Сообщений: 13

дайте скорости ребят)

Создавать темы 03-Окт-2012 19:11

[Профиль]  [ЛС] 

Maxwn

Стаж: 6 лет 10 месяцев

Сообщений: 243

Симпатии: 10

Спасибо, посмотрел)
имхо, никакой логики, глупые моменты

Создавать темы 04-Окт-2012 21:40

[Профиль]  [ЛС] 

Robot-IX

Стаж: 5 лет 7 месяцев

Сообщений: 223

Симпатии: 9

на вкус и цвет, товаоища нет ! , моё мнение это новое поколение фильмов ужаса !
не тупого варианта.

Создавать темы 06-Окт-2012 09:42

[Профиль]  [ЛС] 

tempo

Стаж: 5 лет 1 месяц

Сообщений: 51

кто скачал дайте плиз

Создавать темы 07-Окт-2012 15:47

[Профиль]  [ЛС] 

TeNDaY

Стаж: 5 лет 1 месяц

Сообщений: 3

ziyod, спс 3а Рели3 !!! Фильм Просто Супер ))

Создавать темы 28-Окт-2012 19:41

[Профиль]  [ЛС] 

DMiTRY

Стаж: 6 лет 6 месяцев

Сообщений: 649

Симпатии: 28

встаньте пожалуйста на раздачу.

Создавать темы 02-Ноя-2012 12:02

[Профиль]  [ЛС] 

DMiTRY

Стаж: 6 лет 6 месяцев

Сообщений: 649

Симпатии: 28

жмоты,которые скачали фильм,нельзя ли встать на раздачу? какие-то 3.87гб качаю 55 часов. Выделить какие-то 100кб не могут.

Создавать темы 04-Ноя-2012 19:11

[Профиль]  [ЛС] 

Gret

Стаж: 5 лет

Сообщений: 6

жадные дайти скорости)))

Создавать темы 07-Ноя-2012 17:44

[Профиль]  [ЛС] 

2222

Стаж: 5 лет 4 месяца

Сообщений: 193

Симпатии: 3

РЕально страшно..

_________________
Подпись отключена за нарушение правил форума

Создавать темы 22-Ноя-2012 15:46

[Профиль]  [ЛС] 

nokia6300

Стаж: 5 лет 6 месяцев

Сообщений: 11

да фильм классный ) особенно момент 1 есть ну я не скажу )

Создавать темы 12-Дек-2012 20:47

[Профиль]  [ЛС] 

Neo.84

Стаж: 7 лет

Сообщений: 6

кто нибудь встаньте на раздачу ауу

Создавать темы 25-Дек-2012 01:16

[Профиль]  [ЛС] 
Показать сообщения:    
Ответить на тему

Текущее время: 19-Ноя 17:33

Часовой пояс: UTC + 5



Вы не можете начинать темы
Вы не можете отвечать на сообщения
Вы не можете редактировать свои сообщения
Вы не можете удалять свои сообщения
Вы не можете голосовать в опросах
Вы не можете прикреплять файлы к сообщениям
Вы не можете скачивать файлы