Идентификация (Осознание личности) / Identity (Джеймс Мэнголд) [2003 г., Мистика, Триллер, DVDRip]

Ответить на тему
 

FiedeL ®

Стаж: 6 лет 4 месяца

Сообщений: 27

Симпатии: 1

Идентификация (Осознание личности) / Identity
Год выпуска: 2003
Страна: США
Жанр: Мистика, Триллер
Продолжительность: 01:30:02
Перевод: Профессиональный (многоголосый, закадровый) - ОРТ
Режиссер: Джеймс Мэнголд
В ролях:
Джон Кьюсак, Рэй Лиотта, Аманда Пит, Джон Хоукс, Альфред Молина, Клеа Дюваль, Джон С. МакГинли, Уильям Ли Скотт, Джэйк Бьюзи, Прюитт Тейлор Винс, Ребекка Де Морнэй, Кармен Аргензиано, Маршалл Белл, Leila Kenzle, Мэтт Летчер, Bret Loehr, Холмс Осборн, Фредерик Соффин, Джо Харт, Майкл Хирш, Теренс Берни Хайнс
Описание: По воле случая и странному стечению обстоятельств десять человек из разных концов страны оказываются под одной крышей в захолустном мотеле, затерянном посреди пустыни, где им приходится пережидать проливной дождь. Компания престранная - бывший полицейский, а ныне водитель. Капризная кинозвезда. Парочка молодожёнов. Семейство из трёх человек. Полицейский, сопровождающий преступника к месту заключения. Проститутка, решившая порвать со своим ремеслом. Владелец мотеля. Что может их всех связывать? Казалось бы, ровным счётом ничего. Но только на первый взгляд...
Качество: DVDRip
Формат: AVI
Видео кодек: XviD
Аудио кодек: AC3
Видео: Xvid 720x304 23.976fps 2124 kbps
Аудио: Dolby AC3 48000Hz 2 channels 192kbps

Скриншоты





Media Info

General
Complete name : g:\Films\Идентификация.avi
Format : AVI
Format/Info : Audio Video Interleave
File size : 1.46 GiB
Duration : 1h 30mn
Overall bit rate : 2 325 Kbps
Writing application : VirtualDubMod 1.5.10.3 | www.virtualdub-fr.org || (build 2550/release)
Writing library : VirtualDubMod build 2550/release
Video
ID : 0
Format : MPEG-4 Visual
Format profile : Advanced [email protected]
Format settings, BVOP : 1
Format settings, QPel : No
Format settings, GMC : No warppoints
Format settings, Matrix : Default (MPEG)
Codec ID : XVID
Codec ID/Hint : XviD
Duration : 1h 30mn
Bit rate : 2 124 Kbps
Width : 720 pixels
Height : 304 pixels
Display aspect ratio : 2.35:1
Frame rate : 23.976 fps
Color space : YUV
Chroma subsampling : 4:2:0
Bit depth : 8 bits
Scan type : Progressive
Compression mode : Lossy
Bits/(Pixel*Frame) : 0.405
Stream size : 1.34 GiB (91%)
Writing library : XviD 58
Audio
ID : 1
Format : AC-3
Format/Info : Audio Coding 3
Mode extension : CM (complete main)
Codec ID : 2000
Duration : 1h 30mn
Bit rate mode : Constant
Bit rate : 192 Kbps
Channel(s) : 2 channels
Channel positions : Front: L R
Sampling rate : 48.0 KHz
Bit depth : 16 bits
Compression mode : Lossy
Stream size : 124 MiB (8%)
Alignment : Split accross interleaves
Interleave, duration : 42 ms (1.00 video frame)
Interleave, preload duration : 500 ms

Создавать темы 26-Сен-2012 20:06

[Профиль]  [ЛС] 

Nastya Lou

Стаж: 5 лет 5 месяцев

Сообщений: 42

Симпатии: 1

Спасибо!!!очень не плохой трилер..давно хотел посмотреть!!! но личеров нет ...с раздачи ухожу!!!

Создавать темы 17-Окт-2012 22:53

[Профиль]  [ЛС] 

Cutchelly

Стаж: 4 года 10 месяцев

Сообщений: 25

Симпатии: 1

кто есть здесь не уходите с раздачи очь прошу

Создавать темы 25-Май-2013 16:07

[Профиль]  [ЛС] 

eXpl0sion

Стаж: 6 лет 4 месяца

Сообщений: 27

Симпатии: 3

Может скорости дадите? за 3 месяца скачано 20%

Создавать темы 03-Июн-2013 04:47

[Профиль]  [ЛС] 

112

Стаж: 6 лет 10 месяцев

Сообщений: 24

встаньте пож на раздачу!

Создавать темы 03-Июн-2013 06:31

[Профиль]  [ЛС] 

112

Стаж: 6 лет 10 месяцев

Сообщений: 24

источник вернись пож!

Создавать темы 11-Июн-2013 18:24

[Профиль]  [ЛС] 

Dark_Wizard_Sigma

Стаж: 5 лет 1 месяц

Сообщений: 26

товарищи , а что со скоростью то ... её просто нет (((

Создавать темы 26-Авг-2014 23:13

[Профиль]  [ЛС] 

Dark_Wizard_Sigma

Стаж: 5 лет 1 месяц

Сообщений: 26

народ вы издеваетесь скорость 1.5 кб ... 14 % осталось уже вторые сутки скачать не могу

Создавать темы 27-Авг-2014 20:13

[Профиль]  [ЛС] 

Dark_Wizard_Sigma

Стаж: 5 лет 1 месяц

Сообщений: 26

да ну вас в баню с такой раздачей ... проще с внешки скачать

Создавать темы 27-Авг-2014 21:00

[Профиль]  [ЛС] 

FiedeL ®

Стаж: 6 лет 4 месяца

Сообщений: 27

Симпатии: 1

В связи с переездом в Российскую Федерацию более раздавать на этом трекере не имею возможности. Приношу свои извинения.

Создавать темы 18-Окт-2014 03:07

[Профиль]  [ЛС] 
Показать сообщения:    
Ответить на тему

Текущее время: 22-Сен 11:26

Часовой пояс: UTC + 5



Вы не можете начинать темы
Вы не можете отвечать на сообщения
Вы не можете редактировать свои сообщения
Вы не можете удалять свои сообщения
Вы не можете голосовать в опросах
Вы не можете прикреплять файлы к сообщениям
Вы не можете скачивать файлы