Пари на любовь / Racha (2012) (Сампат Нанди ) [2012 г., Боевик,Криминал,Комедия, DVDRip]

Ответить на тему
 

maxi mix ®

Стаж: 5 лет 9 месяцев

Сообщений: 131

Симпатии: 9

Пари на любовь / Racha (2012) Год выпуска: 2012
Страна: Индия
Жанр: Боевик,Криминал,Комедия
Продолжительность: 02:23:49
Перевод: Любительский (одноголосый) (zamez)
Режиссер: Сампат Нанди
В ролях: Таманна Бхатия, Судха, Сатья, Рам Чаран Теджа, Рагху Бабу, Рави Бабу, Нассер, Мукеш Риши, М.С. Нарьяна, Дев Гилл, Брахманандам, Али, Шрирам Л.Б., Шриниваса Рао Кота, Хема
Описание: Радж - обычный парень, который живет с приемными родителями и зарабатывает тем, что держит пари на деньги. Его беззаботную жизнь нарушает болезнь отца, которому требуется пересадка печени. Чтобы добыть необходимую сумму, Радж соглашается на пари, согласно которому он должен за месяц добиться любви Чайтры - дочери могущественного промышленника. Но у Чайтры есть свои тайны, и задача Раджа окажется не столь простой, как можно было бы ожидать.
Качество: DVDRip
Формат: MPEG-PS
Видео кодек: MPEG2
Аудио кодек: MP3
Видео: MPEG2 Video 352x288 25.00fps 745kbps
Аудио: MPEG Audio 48000Hz stereo 128kbps

Скриншоты



Последний раз редактировалось: maxi mix (2012-10-03 09:49), всего редактировалось 6 раз(а)

Создавать темы 28-Сен-2012 21:14

[Профиль]  [ЛС] 

victor0778

Стаж: 6 лет 9 месяцев

Сообщений: 1670

Симпатии: 142

maxi mix, Сомнительные тех. данные, вышлите лог медиа инфо и скриншоты по указанным вами размерам залейте 360x288

Создавать темы 29-Сен-2012 08:15

[Профиль]  [ЛС] 

maxi mix ®

Стаж: 5 лет 9 месяцев

Сообщений: 131

Симпатии: 9

victor0778,
General
Complete name : N:\hind\Пари на любовь Racha ( 2012 ) tas-ix.net\Пари на любовь.mpg
Format : MPEG-PS
File size : 917 MiB
Duration : 2h 23mn
Overall bit rate mode : Variable
Overall bit rate : 891 Kbps
Video
ID : 224 (0xE0)
Format : MPEG Video
Format version : Version 2
Format profile : [email protected]
Format settings, BVOP : Yes
Format settings, Matrix : Custom
Duration : 2h 23mn
Bit rate mode : Variable
Bit rate : 745 Kbps
Maximum bit rate : 700 Kbps
Width : 352 pixels
Height : 288 pixels
Display aspect ratio : 4:3
Frame rate : 25.000 fps
Standard : PAL
Color space : YUV
Chroma subsampling : 4:2:0
Bit depth : 8 bits
Scan type : Progressive
Compression mode : Lossy
Bits/(Pixel*Frame) : 0.294
Stream size : 767 MiB (84%)
Color primaries : BT.470-2 System B, BT.470-2 System G
Transfer characteristics : BT.470-2 System B, BT.470-2 System G
Matrix coefficients : BT.470-2 System B, BT.470-2 System G
Audio
ID : 192 (0xC0)
Format : MPEG Audio
Format version : Version 1
Format profile : Layer 2
Duration : 2h 23mn
Bit rate mode : Constant
Bit rate : 128 Kbps
Channel(s) : 2 channels
Sampling rate : 48.0 KHz
Compression mode : Lossy
Stream size : 132 MiB (14%)
Menu

Создавать темы 30-Сен-2012 11:32

[Профиль]  [ЛС] 
Показать сообщения:    
Ответить на тему

Текущее время: 19-Ноя 11:56

Часовой пояс: UTC + 5



Вы не можете начинать темы
Вы не можете отвечать на сообщения
Вы не можете редактировать свои сообщения
Вы не можете удалять свои сообщения
Вы не можете голосовать в опросах
Вы не можете прикреплять файлы к сообщениям
Вы не можете скачивать файлы