Бизнесмен / Business Man 2012 (Пури Джаганнатх) [2012 г., Боевик, Комедия, Криминал, Триллер, DVDRip]

Ответить на тему
 

maxi mix ®

Стаж: 5 лет 7 месяцев

Сообщений: 131

Симпатии: 9

Бизнесмен / Business Man 2012 Год выпуска: 2012
Страна: Индия
Жанр: Боевик, Комедия, Криминал, Триллер
Продолжительность: 02:11:20
Перевод: Любительский (одноголосый)
Режиссер: Пури Джаганнатх
В ролях: Швета Бхардвай, Саяджи Шинде, Санджай Сваруп, Раза Мурад, Раджив Мехта, Пури Джаганнатх, Пракаш Радж, Нассер, Махеш Бабу, Каджал, Др. Бхарат Редди, Джахангир Кхан, Аеша Шива, Subbaraju, Shivraj Walvekar, Dharmavarapu Subramanyam, Brahmaji, Aakash
Описание: Комиссар полиции Мумбаи Аджай Бхарадвадж на пресс-конференции рапортует, что с организованной преступностью в городе покончено. Но в тот же день на мумбайском вокзале с поезда сходит Виджай Сурья. Он один, он безоружен, он чужак, и у него нет ни рупии в кармане. Но его цель - стать новым криминальным авторитетом и более того - легализовать мафию. А для этого нужно обойти единственное серьёзное препятствие - комиссара Бхарадваджа, и самый короткий путь здесь - завоевать сердце его дочери. Насколько далеко можно зайти, обладая изощрённым умом и знанием человеческой психологии при полном отсутствии моральных принципов? И что движет человеком, стремящимся к абсолютной власти?
Качество: DVDRip
Формат: AVI
Видео кодек: XviD
Аудио кодек: MPEG Audio
Видео: Xvid 640x480 25.00fps 999 Kbps
Аудио: MPEG Audio Layer 3 44100Hz stereo 128kbps

Скриншоты



Последний раз редактировалось: maxi mix (2012-09-29 12:40), всего редактировалось 2 раз(а)

Создавать темы 28-Сен-2012 21:46

[Профиль]  [ЛС] 

abduvalixon

Стаж: 6 лет 4 месяца

Сообщений: 36

Симпатии: 2

sheyx, у тебя какой плеер

Создавать темы 28-Сен-2012 23:19

[Профиль]  [ЛС] 

sheyx

Стаж: 6 лет 2 месяца

Сообщений: 31

media player classik, light alloy.. windows media player

Создавать темы 28-Сен-2012 23:27

[Профиль]  [ЛС] 

sheyx

Стаж: 6 лет 2 месяца

Сообщений: 31

abduvalixon, media player classik, light alloy.. windows media player

Создавать темы 28-Сен-2012 23:33

[Профиль]  [ЛС] 

abduvalixon

Стаж: 6 лет 4 месяца

Сообщений: 36

Симпатии: 2

sheyx, примерно 50-60% будут потом откроеться

Создавать темы 28-Сен-2012 23:45

[Профиль]  [ЛС] 

Сообщения из этой темы были выделены в отдельный топик нарушения

victor0778

Создавать темы 29-Сен-2012 08:18

 

victor0778

Стаж: 6 лет 7 месяцев

Сообщений: 1670

Симпатии: 142

maxi mix, лог медиа инфо вышлите

Создавать темы 29-Сен-2012 08:22

[Профиль]  [ЛС] 

pirat

Стаж: 5 лет 5 месяцев

Сообщений: 216

Симпатии: 63

maxi mix, фильм интересный? машины летают?

Создавать темы 29-Сен-2012 17:01

[Профиль]  [ЛС] 

sheyx

Стаж: 6 лет 2 месяца

Сообщений: 31

maxi mix, spasibo..

Создавать темы 29-Сен-2012 20:25

[Профиль]  [ЛС] 

sheyx

Стаж: 6 лет 2 месяца

Сообщений: 31

maxi mix, jdem novinki..

Создавать темы 29-Сен-2012 20:26

[Профиль]  [ЛС] 

maxi mix ®

Стаж: 5 лет 7 месяцев

Сообщений: 131

Симпатии: 9

sheyx, ok skora

Создавать темы 29-Сен-2012 20:53

[Профиль]  [ЛС] 

maxi mix ®

Стаж: 5 лет 7 месяцев

Сообщений: 131

Симпатии: 9

victor0778,
General
Complete name : N:\hind\Бизнесмен 2012 tas-ix.net\opr01RQS.avi
Format : AVI
Format/Info : Audio Video Interleave
Format profile : OpenDML
File size : 1.05 GiB
Duration : 2h 11mn
Overall bit rate : 1 143 Kbps
Writing application : MEncoder SVN-r30881(20100311-gcc4.3.3)
Writing library : MPlayer
Video
ID : 0
Format : MPEG-4 Visual
Format profile : Advanced [email protected]
Format settings, BVOP : 2
Format settings, QPel : No
Format settings, GMC : No warppoints
Format settings, Matrix : Default (H.263)
Codec ID : XVID
Codec ID/Hint : XviD
Duration : 2h 11mn
Bit rate : 999 Kbps
Width : 640 pixels
Height : 480 pixels
Display aspect ratio : 4:3
Frame rate : 25.000 fps
Color space : YUV
Chroma subsampling : 4:2:0
Bit depth : 8 bits
Scan type : Progressive
Compression mode : Lossy
Bits/(Pixel*Frame) : 0.130
Stream size : 938 MiB (87%)
Writing library : XviD 1.2.1 (UTC 2008-12-04)
Audio
ID : 1
Format : MPEG Audio
Format version : Version 1
Format profile : Layer 3
Mode : Joint stereo
Mode extension : MS Stereo
Codec ID : 55
Codec ID/Hint : MP3
Duration : 2h 11mn
Bit rate mode : Constant
Bit rate : 128 Kbps
Channel(s) : 2 channels
Sampling rate : 44.1 KHz
Compression mode : Lossy
Delay relative to video : 40ms
Stream size : 120 MiB (11%)
Alignment : Aligned on interleaves
Interleave, duration : 26 ms (0.65 video frame)
Interleave, preload duration : 522 ms
Writing library : LAME3.98ЄЄЄЄЄЄЄЄЄЄЄЄ

Создавать темы 30-Сен-2012 11:33

[Профиль]  [ЛС] 
Показать сообщения:    
Ответить на тему

Текущее время: 20-Сен 10:51

Часовой пояс: UTC + 5



Вы не можете начинать темы
Вы не можете отвечать на сообщения
Вы не можете редактировать свои сообщения
Вы не можете удалять свои сообщения
Вы не можете голосовать в опросах
Вы не можете прикреплять файлы к сообщениям
Вы не можете скачивать файлы