Мадагаскар / Madagascar (Эрик Дарнелл, Том МакГрат.) [2005 г., Семейный, Комедия, Мультфильм, Приключения, Боевик, HDRip]

Ответить на тему
 

Тима_7771 ®

Стаж: 6 лет 6 месяцев

Сообщений: 81

Симпатии: 4

Мадагаскар / Madagascar
Год выпуска: 2005
Страна: США
Жанр: Семейный, Комедия, Мультфильм, Приключения, Боевик
Продолжительность: 01:22:51
Перевод: Профессиональный (полное дублирование)
Режиссер: Эрик Дарнелл, Том МакГрат.
В ролях: Бен Стиллер, Крис Рок, Дэвид Швиммер, Джада Пинкетт Смит, Саша Барон Коэн, Седрик 'Развлекатель', Энди Рихтер, Берни Мак, Алек Болдуин, Шерри Шеперд
Описание: Лев Алекс – главная достопримечательность Нью-Йоркского зоопарка. Он с его друзьями – зеброй Марти, жирафом Мелманом и гиппопотамом Глорией - всю жизнь провел в городских каменных джунглях, ни разу не покидая своей клетки.
Но когда группа пингвинов-параноиков устраивает побег из зоопарка, наши друзья решают воспользоваться данным им шансом – сперва они оказываются на улицах Нью-Йорка, а потом на судне отправляются в Африку. Но добравшись до Мадагаскара они понимают, что здесь жизнь не такая простая как им казалось – городским жителям придется пройти через целую череду испытаний, которые их подстерегают на дикой природе.
Качество: HDRip
Формат: AVI
Видео кодек: XviD
Аудио кодек: AC3
Видео: MPEG-4 Visual at 6025 Кбит/сек 1280 x 720 (1.778) at 23.976 fps
Аудио: Audio #0 : RUS AC-3 at 448 Кбит/сек 6 канала(ов), 48,0 КГц (дублированное) Audio #1 : ENG AC-3 at 448 Кбит/сек 6 канала(ов), 48,0 КГц

MediaInfo

General
Format : AVI
Format/Info : Audio Video Interleave
Format profile : OpenDML
File size : 4.16 GiB
Duration : 1h 25mn
Overall bit rate : 6 935 Kbps
Writing application : VirtualDubMod 1.5.10.1 (build 2439/release)
Writing library : VirtualDubMod build 2439/release
Video #0
ID : 0
Format : MPEG-4 Visual
Format profile : Advanced [email protected]
Format settings, BVOP : Yes
Format settings, QPel : No
Format settings, GMC : No warppoints
Format settings, Matrix : Default (H.263)
Muxing mode : Packed bitstream
Codec ID : XVID
Codec ID/Hint : XviD
Duration : 1h 25mn
Bit rate : 6 025 Kbps
Width : 1 280 pixels
Height : 720 pixels
Display aspect ratio : 16:9
Frame rate : 23.976 fps
Color space : YUV
Chroma subsampling : 4:2:0
Bit depth : 8 bits
Scan type : Progressive
Bits/(Pixel*Frame) : 0.273
Stream size : 3.61 GiB (87%)
Writing library : XviD 0039 build=2005.10.08 (UTC 2005-10-08)
Audio #1
ID : 1
Format : AC-3
Format/Info : Audio Coding 3
Mode extension : CM (complete main)
Codec ID : 2000
Duration : 1h 25mn
Bit rate mode : Constant
Bit rate : 448 Kbps
Channel(s) : 6 channels
Channel positions : Front: L C R, Side: L R, LFE
Sampling rate : 48.0 KHz
Bit depth : 16 bits
Video delay : 16ms
Stream size : 275 MiB (6%)
Alignment : Split accross interleaves
Interleave, duration : 42 ms (1.00 video frame)
Interleave, preload duration : 500 ms
Audio #2
ID : 2
Format : AC-3
Format/Info : Audio Coding 3
Mode extension : CM (complete main)
Codec ID : 2000
Duration : 1h 25mn
Bit rate mode : Constant
Bit rate : 448 Kbps
Channel(s) : 6 channels
Channel positions : Front: L C R, Side: L R, LFE
Sampling rate : 48.0 KHz
Bit depth : 16 bits
Stream size : 275 MiB (6%)
Alignment : Split accross interleaves
Interleave, duration : 42 ms (1.00 video frame)
Interleave, preload duration : 500 ms

Скриншоты




Создавать темы 29-Сен-2012 19:56

[Профиль]  [ЛС] 

Saske.amir

Стаж: 5 лет 5 месяцев

Сообщений: 257

Симпатии: 6

Пожалуйста раздай!

Создавать темы 20-Окт-2012 20:30

[Профиль]  [ЛС] 

deemoon03

Стаж: 5 лет 3 месяца

Сообщений: 58

а 2ая часть есть? желательно в BDrip

Создавать темы 24-Янв-2013 14:36

[Профиль]  [ЛС] 

djek

Стаж: 6 лет

Сообщений: 90

Симпатии: 4

раздайте плизз
с к о р о с т ь ?????

Создавать темы 26-Янв-2013 21:19

[Профиль]  [ЛС] 

VeryGood

Стаж: 4 года 1 месяц

Сообщений: 3

ахахха Боевик:D

Создавать темы 12-Ноя-2013 03:30

[Профиль]  [ЛС] 
Показать сообщения:    
Ответить на тему

Текущее время: 14-Дек 20:22

Часовой пояс: UTC + 5



Вы не можете начинать темы
Вы не можете отвечать на сообщения
Вы не можете редактировать свои сообщения
Вы не можете удалять свои сообщения
Вы не можете голосовать в опросах
Вы не можете прикреплять файлы к сообщениям
Вы не можете скачивать файлы