Семя Дьявола / Devil Seed (Грег А. Сейджер) [2012, ужасы, ..., DVDRip]

Ответить на тему
 

jaska-3d ®

Стаж: 5 лет 8 месяцев

Сообщений: 250

Симпатии: 25

Семя Дьявола / Devil Seed-
Год выпуска: 2012
Страна: Канада Matchbox Pictures Inc., Player Entertainment Group
Жанр: ужасы, ...
Продолжительность: 01:33:45
Перевод: Любительский (одноголосый закадровый)[xixidok]-Режиссер: Грег А. Сейджер
Сценарий: Джофф Харт, Грег А. Сейджер
Продюсер: Дуайт Кохлан, Гари Элмер, Джофф Харт, ...
Оператор: Гари Элмер
Композитор: Aaron Gilhuis
Художник: Ноэль Саджиант
Монтаж: Грег А. Сейджер-Описание: Окончание летних каникул совпало для трёх студенток с переездом в новый дом. Возвращаясь с клубной вечеринки в честь новоселья, подвыпившие подруги решили шутки ради заглянуть к местной гадалке. Визит закончился невесело — Алекс, одна из девушек, потеряла сознание, а уже на следующий день вокруг неё начала твориться разная чертовщина, в итоге натолкнувшая Алекс на мысль, что она одержима демоном.
Премьера (мир): 7 августа 2012, ...-- -- -Качество: DVDRip
Формат: AVI
Видео кодек: XviD
Аудио кодеk: AC3
Видео: 720x288 (2.500:1), 25.000 fps, XviD, 1 890 Kbps
Аудио: Аудио #1: AC3, 192 Kbps, 44.1 KHz, 2 ch

МедиаИнфо

General
Complete name                    : Semj.djavola.2012.L1.DVDRip.avi
Format                           : AVI
Format/Info                      : Audio Video Interleave
File size                        : 1.37 GiB
Duration                         : 1h 33mn
Overall bit rate                 : 2 092 Kbps
Writing application              : VirtualDubMod 1.5.10.2 (build 2540/release)
Writing library                  : VirtualDubMod build 2540/release
Video
ID                               : 0
Format                           : MPEG-4 Visual
Format profile                   : Advanced [email protected]
Format settings, BVOP            : Yes
Format settings, QPel            : No
Format settings, GMC             : No warppoints
Format settings, Matrix          : Custom
Codec ID                         : XVID
Codec ID/Hint                    : XviD
Duration                         : 1h 33mn
Bit rate                         : 1 890 Kbps
Width                            : 720 pixels
Height                           : 288 pixels
Display aspect ratio             : 2.500
Frame rate                       : 25.000 fps
Color space                      : YUV
Chroma subsampling               : 4:2:0
Bit depth                        : 8 bits
Scan type                        : Progressive
Bits/(Pixel*Frame)               : 0.365
Stream size                      : 1.24 GiB (90%)
Writing library                  : XviD 1.2.1 (UTC 2008-12-04)
Audio
ID                               : 1
Format                           : AC-3
Format/Info                      : Audio Coding 3
Mode extension                   : CM (complete main)
Codec ID                         : 2000
Duration                         : 1h 33mn
Bit rate mode                    : Constant
Bit rate                         : 192 Kbps
Channel(s)                       : 2 channels
Channel positions                : Front: L R
Sampling rate                    : 44.1 KHz
Bit depth                        : 16 bits
Stream size                      : 129 MiB (9%)
Alignment                        : Split accross interleaves
Interleave, duration             : 40 ms (1.00 video frame)
Interleave, preload duration     : 500 ms

Скриншоты





Последний раз редактировалось: jaska-3d (2012-10-06 03:33), всего редактировалось 10 раз(а)

Создавать темы 03-Окт-2012 15:32

[Профиль]  [ЛС] 

jaska-3d ®

Стаж: 5 лет 8 месяцев

Сообщений: 250

Симпатии: 25


Скриншоты






Последний раз редактировалось: jaska-3d (2012-10-04 13:46), всего редактировалось 3 раз(а)

Создавать темы 03-Окт-2012 15:34

[Профиль]  [ЛС] 

victor0778

Стаж: 6 лет 6 месяцев

Сообщений: 1670

Симпатии: 142

jaska-3d, 3 скриншота по указаным размерам 720x288 залейте.

Создавать темы 03-Окт-2012 17:21

[Профиль]  [ЛС] 

jaska-3d ®

Стаж: 5 лет 8 месяцев

Сообщений: 250

Симпатии: 25

jaska-3d, 3 скриншота по указаным размерам 720x288 залейте.
у меня остановилась раздача фильма на ЮТорренте, не могу понять

Создавать темы 03-Окт-2012 18:03

[Профиль]  [ЛС] 

jaska-3d ®

Стаж: 5 лет 8 месяцев

Сообщений: 250

Симпатии: 25

Всем внимание !!!
Размер: 1.37 GB | Зарегистрирован: 2 дня | Скачан: 0 раз
Сидов: 51 [ 614 KB/s ] Личеров: 6 [ 398 KB/s ] Подробная статистика пиров

Создавать темы 05-Окт-2012 15:55

[Профиль]  [ЛС] 

Tyrael7774

Стаж: 5 лет

Сообщений: 76

Симпатии: 1

Прикольный Ужастик)

Создавать темы 05-Окт-2012 16:15

[Профиль]  [ЛС] 

Guliomjon

Стаж: 5 лет 2 месяца

Сообщений: 3

дайти скорст

Создавать темы 14-Ноя-2012 13:20

[Профиль]  [ЛС] 
Показать сообщения:    
Ответить на тему

Текущее время: 20-Авг 18:19

Часовой пояс: UTC + 5



Вы не можете начинать темы
Вы не можете отвечать на сообщения
Вы не можете редактировать свои сообщения
Вы не можете удалять свои сообщения
Вы не можете голосовать в опросах
Вы не можете прикреплять файлы к сообщениям
Вы не можете скачивать файлы