Приключения Крота / Krtkova dobrodruzstvi / 39 серий (Зденек Милер / Zdenek Miler) [1968-2002 гг., анимация, детский, DVDRip-AVC]

Ответить на тему
 

dramil ®

Стаж: 6 лет 7 месяцев

Сообщений: 183

Симпатии: 62

Приключения Крота / Krtkova dobrodružství
Год выпуска: 1968-2002
Страна: Чехия
Производитель: Krátký film Praha («Пражская студия короткометражных фильмов»)
Жанр: анимация, детский
Продолжительность: обычная серия - 5:20
Перевод: Не требуется
Русские субтитры: нет
Режиссер: Зденек Милер / Zdeněk Miler
Описание:
Этот персонаж действительно пользуется большой и преданной любовью многих поколений кинозрителей всего мира. Впервые Крот появился на экране более полувека назад, когда в начале 50-х его создателю режиссеру Зденеку Милеру предложили снять ленту, посвященную развитию и достижениям страны в текстильном производстве. Но снимать сугубо производственную ленту режиссеру не хотелось, а тут он еще умудрился однажды, гуляя в парке, провалиться в кротовую нору. Знакомство с любителем рытья подземных ходов оказалось чрезвычайно плодотворным. Во всяком случае, первая картина, героем которой стал Крот, была удостоена немалого числа международных наград, включая престижную премию на Венецианском фестивале. Так было положено начало популярному мультсериалу, который уже много лет доставляет радость детям.
Доп. информация:
DVDRip c оригинального чешского издания из 5-ти DVD-дисков.

1-ый диск

1. Крот - садовод / Krtek zahradníkem (1969)
2. Крот и зонтик / Krtek a paraplíčko (1971)
3. Крот и жвачка / Krtek a žvýkačka (1969)
4. Крот и зелёная звезда / Krtek a zelená hvězda (1969)
5. Крот и леденец / Krtek a lízátko (1970)
6. Крот в зоопарке / Krtek v ZOO (1969)
7. Крот и радио / Krtek a tranzistor (1968)
8. Крот и ёжик / Krtek a ježek (1970)
9. Крот и телевизор / Krtek a televizor (1970)
Оригинальный DVD

2-ой диск

01. Krtek a auticko / Крот и автомобильчик (1963)
02. Krtek a koberec / Крот и ковер (1975)
03. Krtek o Vanocich / Крот во время Рождества (1975)
04. Krtek na pousti / Крот в пустыне (1975)
05. Ktrek a karneval / Крот и карнавал (1976)
06. Krtek a vejce / Крот и яйцо (1975)
07. Krtek chemikem / Крот-химик (1974)
08. Krtek a zapalky / Крот и спички (1974)
09. Krtek a buldozer / Крот и бульдозер (1975)
10. Ktrek a telefon / Крот и телефон (1974)
11. Krtek malirem / Крот-маляр (1972)
12. Krtek fotografem / Крот-фотограф (1975)
13. Krtek hodinarem / Крот-часовщик (1975)
14. Krtek a muzika / Крот и музыка (1974)
Оригинальный DVD

3-ий диск

1. Крот в городе / Krtek ve městě (1982)
2. Крот во сне / Krtek ve snu (1984)
3. Крот и утята / Krtek a kachničky (1995)
4. Крот и друзья / Krtek a kamarádi (1995)
5. Крот и день рожденья / Krtek a oslava (1995)
6. Крот и робот / Krtek a robot (1995)
7. Крот и уголь / Krtek a uhlí (1995)
8. Крот и выходные / Krtek a weekend (1995)
9. Скрытая серия "Как крот раздобыл себе штанишки" (1957)
Оригинальный DVD

4-ый диск

1. Крот и лекарство / Krtek a medicína (1987)
2. Крот - кинозвезда / Krtek filmová hvězda (1988)
3. Крот и мама / Krtek a maminka (1997)
4. Крот и снеговик / Krtek a sněhulák (1998)
5. Крот и грибы / Krtek a houby (1997)
6. Крот и зайчонок / Krtek a zajíček (1997)
7. Крот и метро / Krtek a metro (1997)
8. Крот и мышка / Krtek a myška (1998)
Оригинальный DVD

5-ый диск

1. Крот и орел (1992)
2. Крот и часы (1994)
3. Крот и флейта (1999)
4. Крот и источник (1999)
5. Крот и придира (1999)
6. Крот и рыбка (2000)
7. Крот и ласточка (2000)
8. Крот и лягушка (2002)
Оригинальный DVD
Качество: DVDRip
Формат: MKV
Видео кодек: H.264
Аудио кодек: AC3
Видео: 720x576 (4:3)@768x576 VBR, Н.264, ~2000Kbps, 2 pass
Аудио: Dolby AC3, 2 ch, 224 Kbps

Скриншоты

MediaInfo

Video
ID : 1
Format : AVC
Format/Info : Advanced Video Codec
Format profile : [email protected]
Format settings, CABAC : Yes
Format settings, ReFrames : 3 frames
Muxing mode : Container [email protected]
Codec ID : V_MPEG4/ISO/AVC
Duration : 6mn 59s
Bit rate : 1 955 Kbps
Nominal bit rate : 2 000 Kbps
Width : 720 pixels
Height : 576 pixels
Display aspect ratio : 4:3
Original display aspect ratio : 5:4
Frame rate : 25.000 fps
Standard : PAL
Resolution : 24 bits
Colorimetry : 4:2:0
Scan type : Progressive
Bits/(Pixel*Frame) : 0.189
Stream size : 97.9 MiB (88%)
Writing library : x264 core 68 r1183M f21daff
Encoding settings : cabac=1 / ref=3 / deblock=1:-1:-1 / analyse=0x3:0x113 / me=umh / subme=7 / psy_rd=1.0:0.0 / mixed_ref=1 / me_range=16 / chroma_me=1 / trellis=2 / 8x8dct=1 / cqm=0 / deadzone=21,11 / chroma_qp_offset=-2 / threads=3 / nr=0 / decimate=1 / mbaff=0 / bframes=2 / b_pyramid=0 / b_adapt=2 / b_bias=0 / direct=3 / wpredb=1 / keyint=14 / keyint_min=2 / scenecut=40 / rc=2pass / bitrate=2000 / ratetol=1.0 / qcomp=0.50 / qpmin=10 / qpmax=51 / qpstep=4 / cplxblur=20.0 / qblur=0.5 / vbv_maxrate=24000 / vbv_bufsize=14475 / ip_ratio=1.10 / pb_ratio=1.10 / aq=1:1.00
Language : English
Audio
ID : 2
Format : AC-3
Format/Info : Audio Coding 3
Codec ID : A_AC3
Duration : 6mn 59s
Bit rate mode : Constant
Bit rate : 224 Kbps
Channel(s) : 2 channels
Channel positions : L R
Sampling rate : 48.0 KHz
Stream size : 11.2 MiB (10%)

-
2012.11.04. Из раздачи удалены дубликаты. Просьба скачать обновленный торрент


Последний раз редактировалось: dramil (2012-11-04 11:52), всего редактировалось 2 раз(а)

Создавать темы 03-Окт-2012 22:38

[Профиль]  [ЛС] 

dramil ®

Стаж: 6 лет 7 месяцев

Сообщений: 183

Симпатии: 62

Торрент еще не проверен, меня еще нет в статистике, а кто-то уже начал скачивать :)

Создавать темы 03-Окт-2012 22:54

[Профиль]  [ЛС] 

Xurshid27

Стаж: 7 лет 5 месяцев

Сообщений: 33

Симпатии: 2

dramil-дай-скорость-плииииииииизззз!!у-меня-сын-обожает-этот-мультик!!!

Создавать темы 25-Ноя-2012 19:20

[Профиль]  [ЛС] 

Adviser

Стаж: 4 года 7 месяцев

Сообщений: 21

Симпатии: 2

Спс болшое! Толко скорости дайте плз.

Создавать темы 05-Апр-2014 21:53

[Профиль]  [ЛС] 

Ирина

Стаж: 3 года 8 месяцев

Сообщений: 57

Симпатии: 11

Спасибо огромное! Только бы скачался. Внук будет просто счастлив и бабуля тоже.

Создавать темы 01-Июл-2014 21:46

[Профиль]  [ЛС] 

Ирина

Стаж: 3 года 8 месяцев

Сообщений: 57

Симпатии: 11

Спасибо огромное. Я помню этот мультик из моего далекого детства. Скачала внуку. Уверена ему понравится. Скачала 14 часов назад. Размер "раздачи" до сих пор = 0. Мне еще постоять подождать или можно выйти?

Создавать темы 02-Июл-2014 22:03

[Профиль]  [ЛС] 
Показать сообщения:    
Ответить на тему

Текущее время: 23-Сен 16:09

Часовой пояс: UTC + 5



Вы не можете начинать темы
Вы не можете отвечать на сообщения
Вы не можете редактировать свои сообщения
Вы не можете удалять свои сообщения
Вы не можете голосовать в опросах
Вы не можете прикреплять файлы к сообщениям
Вы не можете скачивать файлы