На цепи / Chained (Дженнифер Чэмберс Линч / Jennifer Chambers Lynch) [2012 г., триллер, HDRip]

Ответить на тему
 

Born2MakeUHappy ®

Стаж: 5 лет 4 месяца

Сообщений: 9

Симпатии: 11

На цепи / Chained
Год выпуска: 2012
Страна: США
Жанр: триллер
Продолжительность: 01:34:17
Перевод: Профессиональный (одноголосый)
Режиссер: Дженнифер Чэмберс Линч / Jennifer Chambers Lynch
В ролях: Винсент Д’Онофрио, Джулия Ормонд, Имон Фэррен, Джина Филипс, Джейк Уэбер, Конор Лесли, Ивэн Бёрд, Эми Матисио
Описание: Восьмилетний паренек Тим и его мать подсаживаются в такси к Бобу — невменяемому водителю, как раз подыскивающего себе новую жертву. После убийства женщины Тим становится марионеткой в руках психа, вынуждающего его хоронить тела. Хватит ли подростку мужества разорвать ужасную связь судьбы, все крепче стягивающую его с убийцей…
Качество: HDRip
Формат: AVI
Видео: DivX, 720x304 (2.37:1), 720x304 (2.37:1), 1864 kbps avg, 0.35 bit/pixel
Аудио: Русский, 48 KHz, MPEG Layer 3, 2 ch, 192 kbps

MediaInfo

Format : AVI
Format/Info : Audio Video Interleave
File size : 1.36 GiB
Duration : 1h 34mn
Overall bit rate : 2 066 Kbps
Writing application : VirtualDubMod 1.5.10.2 (build 2540/release)
Writing library : VirtualDubMod build 2540/release
Video
ID : 0
Format : MPEG-4 Visual
Format settings, BVOP : No
Format settings, QPel : No
Format settings, GMC : No warppoints
Format settings, Matrix : Default (H.263)
Codec ID : DX50
Codec ID/Hint : DivX 5
Duration : 1h 34mn
Bit rate : 1 864 Kbps
Width : 720 pixels
Height : 304 pixels
Display aspect ratio : 2.35:1
Frame rate : 23.976 fps
Color space : YUV
Chroma subsampling : 4:2:0
Bit depth : 8 bits
Scan type : Progressive
Compression mode : Lossy
Bits/(Pixel*Frame) : 0.355
Stream size : 1.23 GiB (90%)
Writing library : DivX 5.1.1 (Maupiti) (UTC 2003-11-19)
Audio
ID : 1
Format : MPEG Audio
Format version : Version 1
Format profile : Layer 3
Mode : Joint stereo
Codec ID : 55
Codec ID/Hint : MP3
Duration : 1h 34mn
Bit rate mode : Constant
Bit rate : 192 Kbps
Channel(s) : 2 channels
Sampling rate : 48.0 KHz
Compression mode : Lossy
Stream size : 129 MiB (9%)
Alignment : Aligned on interleaves
Interleave, duration : 42 ms (1.00 video frame)
Interleave, preload duration : 504 ms

Скриншоты



Создавать темы 05-Окт-2012 08:39

[Профиль]  [ЛС] 

Born2MakeUHappy ®

Стаж: 5 лет 4 месяца

Сообщений: 9

Симпатии: 11

нужен ключ от д2

Создавать темы 16-Окт-2012 20:49

[Профиль]  [ЛС] 

Asadovdiyor

Стаж: 5 лет 7 месяцев

Сообщений: 192

хороший медик выйдет из этого парниши :)

Создавать темы 18-Окт-2012 18:57

[Профиль]  [ЛС] 

Born2MakeUHappy ®

Стаж: 5 лет 4 месяца

Сообщений: 9

Симпатии: 11

хороший медик выйдет из этого парниши :)
+

Создавать темы 18-Окт-2012 20:38

[Профиль]  [ЛС] 

Born2MakeUHappy ®

Стаж: 5 лет 4 месяца

Сообщений: 9

Симпатии: 11

Продам ключ от д2!
Предупреждение: 2.3. Заниматься оверпостингом и размножением офф-топиков. 2.7. Заниматься коммерцией при помощи ресурса (за исключением раздела Купля/Продажа/Обмен).
выдал ziyod
okay :(

Создавать темы 29-Ноя-2012 19:24

[Профиль]  [ЛС] 

cybervint

Стаж: 6 лет 8 месяцев

Сообщений: 174

Симпатии: 1

Да фильмец жуткий 2 дня от него отходил все переваривал ! Жуть ! для будущих моньяков!

Создавать темы 30-Ноя-2012 01:42

[Профиль]  [ЛС] 

Felinn1

Стаж: 6 лет 1 месяц

Сообщений: 37

Симпатии: 1

Скачавшие, кто нибудь встаньте на раздачу. 73% скачал и дальше никак не могу докачать.

Создавать темы 29-Окт-2013 03:23

[Профиль]  [ЛС] 

Azizaaaaa

Стаж: 4 года

Сообщений: 55

Симпатии: 1

помогите с раздачей..... пожалуйста

Создавать темы 04-Ноя-2013 18:13

[Профиль]  [ЛС] 

Azizaaaaa

Стаж: 4 года

Сообщений: 55

Симпатии: 1

с утра на 97 % остановилась загрузка(((((

Создавать темы 04-Ноя-2013 19:43

[Профиль]  [ЛС] 
Показать сообщения:    
Ответить на тему

Текущее время: 20-Авг 16:44

Часовой пояс: UTC + 5



Вы не можете начинать темы
Вы не можете отвечать на сообщения
Вы не можете редактировать свои сообщения
Вы не можете удалять свои сообщения
Вы не можете голосовать в опросах
Вы не можете прикреплять файлы к сообщениям
Вы не можете скачивать файлы