Несносные боссы/ Horrible Bosses (Сет Гордон) [2011 г., комедия, криминал, DVDRip]

Ответить на тему
 

Sam ®

Стаж: 5 лет 8 месяцев

Сообщений: 54

Симпатии: 4

Несносные боссы/ Horrible Bosses
Год выпуска: 2011
Страна: США
Жанр: комедия, криминал
Продолжительность: 98 мин. / 01:38
Режиссер: Сет Гордон
В ролях: Джейсон Бейтман, Чарли Дэй, Джейсон Судейкис, Кевин Спейси, Дженнифер Энистон, Колин Фаррелл, Джейми Фокс, Стив Виб, Линдсей Слоун, Мишель Албала
Описание: Единственное, что могло бы сделать трудовые будни Ника, Курта и Дэйла чуть более выносимыми — возможность стереть в порошок их несносное начальство.
Уволиться с работы — не вариант, поэтому, изрядно выпив и воспользовавшись советами бывшего преступника, трое друзей разрабатывают витиеватый и, казалось бы, безупречный план, как помочь друг другу навсегда избавиться от осточертевших работодателей.
Проблема лишь в том, что даже самые продуманные планы безупречны ровно настолько, насколько умны разработавшие их люди.
Доп. информация: Друзья столкнувшись со своими террористами боссами принимают решение их убить. Получится ли данная афера, ведь навыков по устранению нет ни у кого?
В первую очередь фильм можно поделить на два лагеря — боссов и их подчиненных. Первые циничные, утонченные, сексуальные и проживающие полной жизнью персонажи. Вторые зажатые, мелкие и ничтожные в простоте решения своих проблем. Предполагается, что зритель будет на стороне подчиненных, которые по волей судеб оказались заложниками историй. Хотя на месте их Боссов, я бы поступал с этими мало подходящими на мужчин людьми именно так же, как и они поступают. Дополнительно все таки актерский состав старой школы выглядит эффектней чем, новички.
В этом проявляется основная мысль — подчиненные собираются и начинают реализовывать свои идеи, но так как навыка устранения нет и количество глупых и нелепых ситуаций растет с удвоением на каждый квадратный сантиметр, то впереди нас ожидает долгое и смешное кино. Вопрос смешного для каждого сугубо индивидуален. Мне например понравилось, когда Кевин Спейси всегда выходил победителем из любой ситуации или Дженнифер Энистон оказывается очень жгучая женщина. Поэтому чем ярче Боссы, тем нелепее подчиненные. В тоже время в фильме несмотря на количество сортирного юмора можно разглядеть интересные моменты и неплохие смысловые ходы. Учитывая, что сама история очень оригинальная, вроде бы штамповые модели играют чуть более ярко. Поэтому были моменты, когда я не мот от смеха остановиться. Хорошее кино для просмотра с друзьями.
Качество: DVDRip
Формат: AVI
Видео кодек: DivX
Аудио кодек: MP3
Видео: Xvid 640x272 23.976fps [Stream 00]
Аудио: MPEG Audio Layer 3 48000Hz stereo 133kbps [Stream 01]

Media info

General
Complete name : E:\video\horrible.bosses.2011.dvdrip.xvid-amiable.avi
Format : AVI
Format/Info : Audio Video Interleave
File size : 700 MiB
Duration : 1h 37mn
Overall bit rate mode : Variable
Overall bit rate : 1 001 Kbps
Writing application : Nandub v1.0rc2
Writing library : Nandub build 1853/release
Video
ID : 0
Format : MPEG-4 Visual
Format profile : Advanced [email protected]
Format settings, BVOP : 2
Format settings, QPel : No
Format settings, GMC : No warppoints
Format settings, Matrix : Default (H.263)
Muxing mode : Packed bitstream
Codec ID : XVID
Codec ID/Hint : XviD
Duration : 1h 37mn
Bit rate : 855 Kbps
Width : 640 pixels
Height : 272 pixels
Display aspect ratio : 2.35:1
Frame rate : 23.976 fps
Color space : YUV
Chroma subsampling : 4:2:0
Bit depth : 8 bits
Scan type : Progressive
Compression mode : Lossy
Bits/(Pixel*Frame) : 0.205
Stream size : 598 MiB (85%)
Writing library : XviD 57
Audio
ID : 1
Format : MPEG Audio
Format version : Version 1
Format profile : Layer 3
Mode : Joint stereo
Mode extension : MS Stereo
Codec ID : 55
Codec ID/Hint : MP3
Duration : 1h 37mn
Bit rate mode : Variable
Bit rate : 134 Kbps
Channel(s) : 2 channels
Sampling rate : 48.0 KHz
Compression mode : Lossy
Delay relative to video : 8ms
Stream size : 93.4 MiB (13%)
Alignment : Aligned on interleaves
Interleave, duration : 24 ms (0.58 video frame)
Interleave, preload duration : 137 ms

Скриншоты





Последний раз редактировалось: Sam (2012-10-06 13:54), всего редактировалось 4 раз(а)

Создавать темы 05-Окт-2012 10:52

[Профиль]  [ЛС] 

lyrics

Стаж: 5 лет 9 месяцев

Сообщений: 22

Симпатии: 1

когда раздача??

Создавать темы 05-Окт-2012 13:16

[Профиль]  [ЛС] 

Sam ®

Стаж: 5 лет 8 месяцев

Сообщений: 54

Симпатии: 4

все оформил

Создавать темы 06-Окт-2012 08:56

[Профиль]  [ЛС] 

root

Стаж: 5 лет 4 месяца

Сообщений: 592

Симпатии: 172

у ког есть звуковая дорога на русском

Создавать темы 07-Окт-2012 17:41

[Профиль]  [ЛС] 

khumo

Стаж: 4 года 3 месяца

Сообщений: 12

помогите скачать

Создавать темы 15-Июл-2013 10:09

[Профиль]  [ЛС] 

yurko_1997

Стаж: 3 года 9 месяцев

Сообщений: 21

Помогите скачать пожалуйста

Создавать темы 18-Мар-2014 20:41

[Профиль]  [ЛС] 
Показать сообщения:    
Ответить на тему

Текущее время: 22-Окт 13:23

Часовой пояс: UTC + 5



Вы не можете начинать темы
Вы не можете отвечать на сообщения
Вы не можете редактировать свои сообщения
Вы не можете удалять свои сообщения
Вы не можете голосовать в опросах
Вы не можете прикреплять файлы к сообщениям
Вы не можете скачивать файлы