Как соблазнять труднодоступных женщин / How to Seduce Difficult Women (Ричард Темчен) [2009, комедия, ..., HDRip]

Ответить на тему
 

jaska-3d ®

Стаж: 5 лет 10 месяцев

Сообщений: 250

Симпатии: 25

Как соблазнять труднодоступных женщин / How to Seduce Difficult Women«For every woman ready to exhale, there is a man waiting to inhale»-
Год выпуска: 2009
Страна: США / Quadrant Entertainment
Жанр: комедия, ...
Продолжительность: 01:33:18
Перевод: Профессиональный (многоголосый закадровый) [лицензия]-Режиссер: Ричард Темчен
Сценарий: Ричард Темчен
Продюсер: Ричард Темчен, Стэн Чарнин, Гаетан Россо
Оператор: Бенжамин Чартьер
Композитор: Педро Х. Да Силва
Художник: Томмазо Ортино, Сильвия Гризер, Эми Уильямс
Монтаж: Майкл Д. Томсон-В ролях: Луи-До де Ланкесэ, Стефани Зостак, Джеки Хоффман, Рэйчел Робертс, Опал Алладин, Протима Аней, Брайан Аверс, Лори Бэйкер, Дэвид Уилсон Барнс, Грегг Белло-Описание: Соблазнение женщины, без сомнения, является настоящим искусством. Нескольким американским неудачникам предстоит шаг за шагом постичь его секреты. И поможет им в этом Филипп — гуру из Франции.-Премьера (мир): 30 октября 2009
Релиз на DVD: 31 мая 2012, «Флагман-Трейд», ...-- --
Релиз группы:
Качество: HDRip
Формат: AVI
Видео кодек: XviD
Аудио кодеk: MP3
Видео: 640x352 (16:9), 25.000 fps, xvid, 916 Kbps
Аудио: Аудио #1: MP3, 128 Kbps, 48.0 KHz, 2 ch

МедиаИнфо

General
Complete name                    : Kak soblaznjat.trudnodostupnyh.zhenwin.2009.HDRip.avi
Format                           : AVI
Format/Info                      : Audio Video Interleave
File size                        : 705 MiB
Duration                         : 1h 33mn
Overall bit rate                 : 1 057 Kbps
Writing application              : Lavf52.94.0
Video
ID                               : 0
Format                           : xvid
Codec ID                         : xvid
Duration                         : 1h 33mn
Bit rate                         : 916 Kbps
Width                            : 640 pixels
Height                           : 352 pixels
Display aspect ratio             : 16:9
Frame rate                       : 25.000 fps
Bits/(Pixel*Frame)               : 0.163
Stream size                      : 611 MiB (87%)
Audio
ID                               : 1
Format                           : MPEG Audio
Format version                   : Version 1
Format profile                   : Layer 3
Mode                             : Joint stereo
Mode extension                   : MS Stereo
Codec ID                         : 55
Codec ID/Hint                    : MP3
Duration                         : 1h 33mn
Bit rate mode                    : Constant
Bit rate                         : 128 Kbps
Channel(s)                       : 2 channels
Sampling rate                    : 48.0 KHz
Stream size                      : 85.4 MiB (12%)
Alignment                        : Aligned on interleaves
Interleave, duration             : 24 ms (0.60 video frame)
Writing library                  : LAME3.98.4ЄЄЄЄЄЄЄЄЄЄ

Скриншоты





Постеры




Последний раз редактировалось: jaska-3d (2012-10-07 01:09), всего редактировалось 4 раз(а)

Создавать темы 06-Окт-2012 03:22

[Профиль]  [ЛС] 

jaska-3d ®

Стаж: 5 лет 10 месяцев

Сообщений: 250

Симпатии: 25

Скриншоты


Раздаю вечером после 09:00 до 09:00 утра !!!


Последний раз редактировалось: jaska-3d (2012-11-11 10:03), всего редактировалось 1 раз

Создавать темы 06-Окт-2012 03:42

[Профиль]  [ЛС] 

victor0778

Стаж: 6 лет 8 месяцев

Сообщений: 1670

Симпатии: 142

jaska-3d, постер поменяйте он не должен содержать адресов и скриншоты по указаным размерам залейте

Создавать темы 06-Окт-2012 10:22

[Профиль]  [ЛС] 

jaska-3d ®

Стаж: 5 лет 10 месяцев

Сообщений: 250

Симпатии: 25

jaska-3d, постер поменяйте он не должен содержать адресов и скриншоты по указаным размерам залейте
Исправил !!!

Скриншоты




Создавать темы 07-Окт-2012 01:08

[Профиль]  [ЛС] 

art7227

Стаж: 4 года 3 месяца

Сообщений: 3

Гааазуууууууу давайте

Создавать темы 08-Июл-2013 22:28

[Профиль]  [ЛС] 

Marlon

Стаж: 4 года 5 месяцев

Сообщений: 11

Дайте скорость уважаемый

Создавать темы 02-Авг-2013 01:44

[Профиль]  [ЛС] 

Spayke

Стаж: 4 года 3 месяца

Сообщений: 43

Симпатии: 1

дайте скорости

Создавать темы 23-Авг-2013 14:56

[Профиль]  [ЛС] 

Monroe

Стаж: 4 года 4 месяца

Сообщений: 220

Симпатии: 62

А почему нет скриншотив?

Создавать темы 03-Сен-2013 18:20

[Профиль]  [ЛС] 
Показать сообщения:    
Ответить на тему

Текущее время: 21-Окт 01:00

Часовой пояс: UTC + 5



Вы не можете начинать темы
Вы не можете отвечать на сообщения
Вы не можете редактировать свои сообщения
Вы не можете удалять свои сообщения
Вы не можете голосовать в опросах
Вы не можете прикреплять файлы к сообщениям
Вы не можете скачивать файлы