Discovery: Энциклопедия тела человека / Ultimate Guide: The Human Body (Люк Кэмпбелл) [2000 г., документальный, TVRip]

Ответить на тему
 

vadmin ®

Стаж: 7 лет 1 месяц

Сообщений: 70

Симпатии: 13

--Discovery: Энциклопедия тела человека / Ultimate Guide: The Human Body
--Год выпуска: 2000
Жанр: документальный
Продолжительность: 00:46:25
Перевод: Профессиональный (одноголосый)--Режиссер: Люк Кэмпбелл--Описание: Уникальный взгляд на сложную и загадочную работу нашего тела. Это не урок анатомии: вы познакомитесь с увлекательными научными данными.--Качество: TVRip
Формат: AVI
Видео кодек: XviD
Аудио кодек: MP3
Видео: XviD; 25 fps, 684x512 (4:3), 1525 kbps
Аудио: MP3 2 ch, 48Khz, 128 kbps--

MI

General
Complete name : D:\Video\TheUltimateGuide.avi
Format : AVI
Format/Info : Audio Video Interleave
File size : 552 MiB
Duration : 46mn 25s
Overall bit rate : 1 663 Kbps
Writing application : VirtualDubMod 1.5.4.1 (build 2178/release)
Writing library : VirtualDub build 24463/release
Video
ID : 0
Format : MPEG-4 Visual
Format profile : Advanced [email protected]
Format settings, BVOP : Yes
Format settings, QPel : No
Format settings, GMC : No warppoints
Format settings, Matrix : Default (H.263)
Muxing mode : Packed bitstream
Codec ID : XVID
Codec ID/Hint : XviD
Duration : 46mn 25s
Bit rate : 1 525 Kbps
Width : 684 pixels
Height : 512 pixels
Display aspect ratio : 4:3
Frame rate : 25.000 fps
Color space : YUV
Chroma subsampling : 4:2:0
Bit depth : 8 bits
Scan type : Progressive
Bits/(Pixel*Frame) : 0.174
Stream size : 507 MiB (92%)
Writing library : XviD 1.2.0SMP (UTC 2006-01-08)
Audio
ID : 1
Format : MPEG Audio
Format version : Version 1
Format profile : Layer 3
Mode : Joint stereo
Mode extension : MS Stereo
Codec ID : 55
Codec ID/Hint : MP3
Duration : 46mn 25s
Bit rate mode : Constant
Bit rate : 128 Kbps
Channel(s) : 2 channels
Sampling rate : 48.0 KHz
Stream size : 42.5 MiB (8%)
Alignment : Split accross interleaves
Interleave, duration : 40 ms (1.00 video frame)
Interleave, preload duration : 500 ms

Скриншоты (На водяной знак на скриншотах не обращайте внимание.)

Создавать темы 06-Окт-2012 22:39

[Профиль]  [ЛС] 
Показать сообщения:    
Ответить на тему

Текущее время: 21-Сен 08:20

Часовой пояс: UTC + 5



Вы не можете начинать темы
Вы не можете отвечать на сообщения
Вы не можете редактировать свои сообщения
Вы не можете удалять свои сообщения
Вы не можете голосовать в опросах
Вы не можете прикреплять файлы к сообщениям
Вы не можете скачивать файлы