Диалоги о рыбалке (Издательство 'Сейприс') [2010 г., фильмы о рыбалке, SATRip]

Ответить на тему
 

jurabek1999 ®

Стаж: 5 лет 4 месяца

Сообщений: 15

Диалоги о рыбалке
Год выпуска: 2010
Жанр: фильмы о рыбалке
Продолжительность: 00:12:42
Режиссер: Издательство 'Сейприс'
Описание: Ловля зимой с лунки в палатке
Качество: SATRip
Формат: MPEG-PS
Видео кодек: MPEG2
Аудио кодек: MP3
Видео: 720x576 (4:3) 25.00fps 4873kbps
Аудио: 2 chn 48000Hz stereo 192kbps

Скриншоты



лог медиа инфо

Format : MPEG-PS
File size : 470 MiB
Duration : 12mn 42s
Overall bit rate : 5 168 Kbps
Video
ID : 224 (0xE0)
Format : MPEG Video
Format version : Version 2
Format profile : [email protected]
Format settings, BVOP : Yes
Format settings, Matrix : Default
Format settings, GOP : M=2, N=12
Duration : 12mn 42s
Bit rate mode : Variable
Bit rate : 4 873 Kbps
Nominal bit rate : 10 000 Kbps
Width : 720 pixels
Height : 576 pixels
Display aspect ratio : 4:3
Frame rate : 25.000 fps
Standard : PAL
Color space : YUV
Chroma subsampling : 4:2:0
Bit depth : 8 bits
Scan type : Interlaced
Scan order : Top Field First
Bits/(Pixel*Frame) : 0.470
Stream size : 443 MiB (94%)
Audio
ID : 192 (0xC0)
Format : MPEG Audio
Format version : Version 1
Format profile : Layer 2
Duration : 12mn 42s
Bit rate mode : Constant
Bit rate : 192 Kbps
Channel(s) : 2 channels
Sampling rate : 48.0 KHz
Video delay : -98ms
Stream size : 17.4 MiB (4%)


Последний раз редактировалось: jurabek1999 (2012-10-17 11:30), всего редактировалось 5 раз(а)

Создавать темы 08-Окт-2012 19:43

[Профиль]  [ЛС] 

rob

Стаж: 5 лет

Сообщений: 34

Симпатии: 5

Спасибо за релиз, но разве у нас это актуально? ))

Создавать темы 08-Окт-2012 20:16

[Профиль]  [ЛС] 

victor0778

Стаж: 6 лет 7 месяцев

Сообщений: 1670

Симпатии: 142

скриншоты по указаным размерам залейте и Видео: MPEG2 Video 720x576 (4:3) 25.00fps 10000kbps- это сомнительно, прикрепите к оформлению лог медиа инфо

Создавать темы 08-Окт-2012 21:07

[Профиль]  [ЛС] 

jurabek1999 ®

Стаж: 5 лет 4 месяца

Сообщений: 15

зима уже не за горами и скоро будет актуальным

Создавать темы 08-Окт-2012 23:35

[Профиль]  [ЛС] 
Показать сообщения:    
Ответить на тему

Текущее время: 21-Сен 08:13

Часовой пояс: UTC + 5



Вы не можете начинать темы
Вы не можете отвечать на сообщения
Вы не можете редактировать свои сообщения
Вы не можете удалять свои сообщения
Вы не можете голосовать в опросах
Вы не можете прикреплять файлы к сообщениям
Вы не можете скачивать файлы