NASA показало красоту Земли с борта МКС Вид на землю в ускоренном варианте [2012 г., Ролик]

Ответить на тему
 

Gelik ®

Стаж: 4 года 11 месяцев

Сообщений: 2

NASA показало красоту Земли с борта МКС Вид на землю в ускоренном варианте
Год выпуска: 2012
Страна: USA
Жанр: Ролик
Продолжительность: 4:48
Описание: Национальное аэрокосмическое управление США (NASA) показало красочный видеоролик о нашей планете
Качество: Web-Rip
Формат: MP4
Видео кодек: MPEG4 Video (H264) M4V
Аудио кодек: AC3
Видео: MPEG4 Video (H264) 640x356
Аудио: AAC 44100Hz stereo 100kbps
Доп.Информация
Format : MPEG-4
Codec ID : M4V
File size : 25.4 MiB
Duration : 4mn 48s
Overall bit rate mode : Variable
Overall bit rate : 741 Kbps
Movie name : NASA показало красоту Земли с борта МКС
Performer : JohnBroWn
Encoded date : UTC 2012-10-06 16:29:46
Tagged date : UTC 2012-10-06 16:29:46
Comment : Национальное аэрокосмическое управление США (NASA) показало красочный видеоролик о нашей планете
Video
ID : 2
Format : AVC
Format/Info : Advanced Video Codec
Format profile : [email protected]
Format settings, CABAC : Yes
Format settings, ReFrames : 4 frames
Format settings, GOP : M=2, N=50
Codec ID : avc1
Codec ID/Info : Advanced Video Coding
Duration : 4mn 48s
Bit rate mode : Constant
Bit rate : 639 Kbps
Width : 640 pixels
Height : 356 pixels
Display aspect ratio : 16:9
Original display aspect ratio : 16:9
Frame rate mode : Variable
Frame rate : 25.000 fps
Minimum frame rate : 12.500 fps
Maximum frame rate : 38.462 fps
Standard : NTSC
Color space : YUV
Chroma subsampling : 4:2:0
Bit depth : 8 bits
Scan type : Progressive
Bits/(Pixel*Frame) : 0.112
Stream size : 21.8 MiB (86%)
Language : English
Encoded date : UTC 2012-10-06 16:29:46
Tagged date : UTC 2012-10-06 16:29:46
Color primaries : BT.601-6 525, BT.1358 525, BT.1700 NTSC, SMPTE 170M
Transfer characteristics : BT.601-6 525, BT.601-6 625, BT.1358 525, BT.1358 625, BT.1700 NTSC, SMPTE 170M
Matrix coefficients : BT.601-6 525, BT.1358 525, BT.1700 NTSC, SMPTE 170M
Audio
ID : 1
Format : AAC
Format/Info : Advanced Audio Codec
Format profile : LC
Codec ID : 40
Duration : 4mn 48s
Bit rate mode : Variable
Bit rate : 100 Kbps
Maximum bit rate : 160 Kbps
Channel(s) : 2 channels
Channel positions : Front: L R
Sampling rate : 44.1 KHz
Compression mode : Lossy
Stream size : 3.44 MiB (14%)
Language : English
Encoded date : UTC 2012-10-06 16:29:46
Tagged date : UTC 2012-10-06 16:29:46

Скриншоты





Последний раз редактировалось: Gelik (2012-10-08 22:56), всего редактировалось 1 раз

Создавать темы 08-Окт-2012 21:16

[Профиль]  [ЛС] 

Fenomen

Стаж: 4 года 10 месяцев

Сообщений: 4

у меня в HD качестве есть!" весит около 80мб

Создавать темы 09-Окт-2012 03:50

[Профиль]  [ЛС] 

Roy

Стаж: 7 лет 5 месяцев

Сообщений: 13

у меня в HD качестве есть!" весит около 80мб
выложи посмотрим !

Создавать темы 09-Окт-2012 10:32

[Профиль]  [ЛС] 
Показать сообщения:    
Ответить на тему

Текущее время: 18-Авг 13:38

Часовой пояс: UTC + 5



Вы не можете начинать темы
Вы не можете отвечать на сообщения
Вы не можете редактировать свои сообщения
Вы не можете удалять свои сообщения
Вы не можете голосовать в опросах
Вы не можете прикреплять файлы к сообщениям
Вы не можете скачивать файлы