Sexy Women & Fast Cars [2012 г., HPD Driving]

Ответить на тему
 

Gelik ®

Стаж: 4 года 11 месяцев

Сообщений: 2

Sexy Women & Fast Cars
Год выпуска: 2012
Страна: USA
Жанр: HPD Driving
Продолжительность: 03:15
Описание: Девушки и машины.
Формат: MPEG-4
Видео кодек:Advanced Video Coding
Аудио кодек: AAC
Видео: MPEG4 Video (H264) 640x360
Аудио: AAC 44100Hz stereo 89kbps

Media Info

Format : MPEG-4
Codec ID : M4V
File size : 19.8 MiB
Duration : 3mn 15s
Overall bit rate mode : Variable
Overall bit rate : 851 Kbps
Movie name : Девушки и машины
Performer : Nanuk
Encoded date : UTC 2012-10-04 22:11:13
Tagged date : UTC 2012-10-04 22:11:13
Comment : Красивые девушки на пассажирском сидении гоночных машин
Video
ID : 2
Format : AVC
Format/Info : Advanced Video Codec
Format profile : [email protected]
Format settings, CABAC : Yes
Format settings, ReFrames : 4 frames
Codec ID : avc1
Codec ID/Info : Advanced Video Coding
Duration : 3mn 15s
Bit rate mode : Constant
Bit rate : 768 Kbps
Width : 640 pixels
Height : 360 pixels
Display aspect ratio : 16:9
Frame rate mode : Constant
Frame rate : 29.970 fps
Standard : NTSC
Color space : YUV
Chroma subsampling : 4:2:0
Bit depth : 8 bits
Scan type : Progressive
Bits/(Pixel*Frame) : 0.111
Stream size : 17.6 MiB (89%)
Language : English
Encoded date : UTC 2012-10-04 22:11:13
Tagged date : UTC 2012-10-04 22:11:13
Color primaries : BT.601-6 525, BT.1358 525, BT.1700 NTSC, SMPTE 170M
Transfer characteristics : BT.601-6 525, BT.601-6 625, BT.1358 525, BT.1358 625, BT.1700 NTSC, SMPTE 170M
Matrix coefficients : BT.601-6 525, BT.1358 525, BT.1700 NTSC, SMPTE 170M
Audio
ID : 1
Format : AAC
Format/Info : Advanced Audio Codec
Format profile : LC
Codec ID : 40
Duration : 3mn 15s
Bit rate mode : Variable
Bit rate : 89.7 Kbps
Maximum bit rate : 156 Kbps
Channel(s) : 2 channels
Channel positions : Front: L R
Sampling rate : 44.1 KHz
Compression mode : Lossy
Stream size : 2.09 MiB (11%)
Language : English
Encoded date : UTC 2012-10-04 22:11:13
Tagged date : UTC 2012-10-04 22:11:13

Скриншоты





Последний раз редактировалось: Gelik (2012-10-11 13:29), всего редактировалось 1 раз

Создавать темы 08-Окт-2012 22:24

[Профиль]  [ЛС] 

_PAPA_

Стаж: 5 лет 1 месяц

Сообщений: 26

Симпатии: 2

фигня

Создавать темы 19-Ноя-2012 15:00

[Профиль]  [ЛС] 
Показать сообщения:    
Ответить на тему

Текущее время: 17-Авг 02:41

Часовой пояс: UTC + 5



Вы не можете начинать темы
Вы не можете отвечать на сообщения
Вы не можете редактировать свои сообщения
Вы не можете удалять свои сообщения
Вы не можете голосовать в опросах
Вы не можете прикреплять файлы к сообщениям
Вы не можете скачивать файлы