Будьте спокойны / Muita Calma Nessa Hora (Felipe Joffily) [2010, комедия, ..., DVDRip]

Ответить на тему
 

jaska-3d ®

Стаж: 5 лет 9 месяцев

Сообщений: 250

Симпатии: 25

Будьте спокойны / Muita Calma Nessa Hora

Год выпуска: 2010
Страна: Бразилия
Жанр: комедия, ...
Продолжительность: 01:32:22
Перевод: Любительский (многоголосый закадровый)--Режиссер: Felipe Joffily
Сценарий: Джоао Авелино, Rosana Ferrao, Бруно Маззео, ...
Продюсер: Августо Кейс, Рик Ногейра, Джанне Альбертони, ...
Оператор: Марсело Бразил
Композитор : Леони, Питти
Художник: Валерия Коста, Паоло Барбоза, Рената Руссо
Монтаж: Марсело Мораес--В главных ролях : Marcelo Adnet, Джанне Альбертони, Марко Антонио Алвес, Дуду Азеведо, Лаура Кардозу, Луиз Кардосо, Фаусто Фанти, Тельмо Фернандес, Нельсон Фрейтас, Мария Клара Гейрос, ...--Описание: Подруги Мари, Чита и Анинья проходят через проблемы, которые выливаются в большую комедию. Уставшие от всего этого они совершают невероятное путешествие в Бузиос, штат Рио де Жанейро. По пути они встречают и подвозят девушку-хиппи. Прекрасные виды Бузиоса, невероятные пляжи и много веселья с девчонками из Рио!--Бюджет: BRL 2 000 000
Зрители: Бразилия 1.46 млн
Премьера (мир): 12 ноября 2010
-- --Релиз группы:
Качество: DVDRip
Формат: AVI
Видео кодек: XviD
Аудио кодек: MP3
Видео: 720x400 (16:9), 23.976 fps, XviD, 1 981 Kbps
Аудио: MP3, 128 Kbps, 48.0 KHz, 2 ch

МедиаИнфо

General
Complete name                    : Budjte.spokojny.2010.HDRip.avi
Format                           : AVI
Format/Info                      : Audio Video Interleave
File size                        : 1.37 GiB
Duration                         : 1h 32mn
Overall bit rate                 : 2 118 Kbps
Writing application              : VirtualDubMod 1.5.10.3 | www.virtualdub-fr.org || (build 2550/release)
Writing library                  : VirtualDubMod build 2550/release
Video
ID                               : 0
Format                           : MPEG-4 Visual
Format profile                   : Advanced [email protected]
Format settings, BVOP            : Yes
Format settings, QPel            : No
Format settings, GMC             : No warppoints
Format settings, Matrix          : Default (H.263)
Codec ID                         : XVID
Codec ID/Hint                    : XviD
Duration                         : 1h 32mn
Bit rate                         : 1 981 Kbps
Width                            : 720 pixels
Height                           : 400 pixels
Display aspect ratio             : 16:9
Frame rate                       : 23.976 fps
Color space                      : YUV
Chroma subsampling               : 4:2:0
Bit depth                        : 8 bits
Scan type                        : Progressive
Bits/(Pixel*Frame)               : 0.287
Stream size                      : 1.28 GiB (94%)
Writing library                  : XviD 1.2.1 (UTC 2008-12-04)
Audio
ID                               : 1
Format                           : MPEG Audio
Format version                   : Version 1
Format profile                   : Layer 3
Mode                             : Joint stereo
Mode extension                   : MS Stereo
Codec ID                         : 55
Codec ID/Hint                    : MP3
Duration                         : 1h 32mn
Bit rate mode                    : Constant
Bit rate                         : 128 Kbps
Channel(s)                       : 2 channels
Sampling rate                    : 48.0 KHz
Stream size                      : 84.6 MiB (6%)
Alignment                        : Aligned on interleaves
Interleave, duration             : 42 ms (1.00 video frame)
Interleave, preload duration     : 504 ms
Writing library                  : LAME3.97

Скриншоты








Последний раз редактировалось: jaska-3d (2012-10-21 08:51), всего редактировалось 6 раз(а)

Создавать темы 09-Окт-2012 13:52

[Профиль]  [ЛС] 

jaska-3d ®

Стаж: 5 лет 9 месяцев

Сообщений: 250

Симпатии: 25

Создавать темы 09-Окт-2012 14:03

[Профиль]  [ЛС] 

scorpion77

Стаж: 5 лет 8 месяцев

Сообщений: 95

Симпатии: 5

jaska-3d,
Где раздача?

Создавать темы 09-Окт-2012 23:31

[Профиль]  [ЛС] 

jaska-3d ®

Стаж: 5 лет 9 месяцев

Сообщений: 250

Симпатии: 25

jaska-3d,
Где раздача?
раздаю днём... с 10:00 утра...

Создавать темы 10-Окт-2012 01:38

[Профиль]  [ЛС] 

chill

Стаж: 6 лет 9 месяцев

Сообщений: 55

Симпатии: 4

раздаю днём... с 10:00 утра...
Уже 10 утра, где же раздача?

Создавать темы 11-Окт-2012 12:55

[Профиль]  [ЛС] 

scorpion77

Стаж: 5 лет 8 месяцев

Сообщений: 95

Симпатии: 5

jaska-3d,
Раздавать будешь bu bu

Создавать темы 13-Окт-2012 19:58

[Профиль]  [ЛС] 

jaska-3d ®

Стаж: 5 лет 9 месяцев

Сообщений: 250

Симпатии: 25

jaska-3d,
Раздавать будешь bu bu
Обратите внимание на это :
Размер: 1.37 GB | Зарегистрирован: 6 дней | Скачан: 0 раз
Сидов: 11 [ 173 KB/s ] Личеров: 9 [ 146 KB/s ] Подробная статистика пиров

Создавать темы 14-Окт-2012 12:37

[Профиль]  [ЛС] 

Kinomen

Стаж: 4 года 10 месяцев

Сообщений: 38

Симпатии: 3

Дайте раздачууууууууууууууу плиз и скоростиииииииииииииии

Создавать темы 17-Янв-2013 07:20

[Профиль]  [ЛС] 
Показать сообщения:    
Ответить на тему

Текущее время: 24-Сен 06:33

Часовой пояс: UTC + 5



Вы не можете начинать темы
Вы не можете отвечать на сообщения
Вы не можете редактировать свои сообщения
Вы не можете удалять свои сообщения
Вы не можете голосовать в опросах
Вы не можете прикреплять файлы к сообщениям
Вы не можете скачивать файлы