Дело №39 / США/Канада / Case 39 / (Кристиан Алверт) [2009 г., ужасы, триллер, DVDRip]

Ответить на тему
 

slaiderUZ ®

Стаж: 5 лет 9 месяцев

Сообщений: 172

Симпатии: 6

Дело №39/Case 39... ужасы, триллер США / Канада / Дело №39/Case 39
Год выпуска: 2009
Страна: США / Канада
Жанр: ужасы, триллер
Продолжительность: 01:44:54
Перевод: Профессиональный (полное дублирование)
Режиссер: Кристиан Алверт
В ролях: Рене Зеллвегер, Джоделль Ферланд, Йен МакШейн, Керри О`Мэлли, Каллум Кейт Ренни, Брэдли Купер, Кристал Лоу, Адриан Лестер, Джорджия Крэйг, Синтия Стивенсон
Описание: Социальный работник Эмили Дженкинс, с идеалистическими завихрениями в голове, спасает
десятилетнюю замученную родителями девочку Лилит Салливан. Через некоторое время выясняется,
что ситуация в семье была диаметрально противоположной…
слоган «Некоторые дела лучше не открывать»
Доп. информация: бюджет $27 000 000
премьера (мир) 13 августа 2009
премьера (РФ) 3 сентября 2009, «Централ Партнершип»
релиз на DVD 29 сентября 2009, «Юниверсал Пикчерс Рус»
Качество: DVDRip
Формат: AVI
Видео кодек: XviD
Аудио кодек: MPEG Audio
Видео: 1411 Kbps, 704х304, 25.000 fps
Аудио: 192 Kbps, 2 channels

MI

General
Complete name : D:\MOVIES\Дело №39 (Оригинал-качество) Премьера\Дело 39.avi
Format : AVI
Format/Info : Audio Video Interleave
File size : 1.18 GiB
Duration : 1h 44mn
Overall bit rate : 1 612 Kbps
Writing application : VirtualDubMod 1.5.10.2 (build 2540/release)
Writing library : VirtualDubMod build 2540/release
Video
ID : 0
Format : MPEG-4 Visual
Format profile : Advanced [email protected]
Format settings, BVOP : 3
Format settings, QPel : No
Format settings, GMC : No warppoints
Format settings, Matrix : Custom
Codec ID : XVID
Codec ID/Hint : XviD
Duration : 1h 44mn
Bit rate : 1 411 Kbps
Width : 704 pixels
Height : 304 pixels
Display aspect ratio : 2.35:1
Frame rate : 25.000 fps
Color space : YUV
Chroma subsampling : 4:2:0
Bit depth : 8 bits
Scan type : Progressive
Compression mode : Lossy
Bits/(Pixel*Frame) : 0.264
Stream size : 1.03 GiB (87%)
Writing library : XviD 1.2.0.dev47 (UTC 2006-11-01)
Audio
ID : 1
Format : MPEG Audio
Format version : Version 1
Format profile : Layer 3
Codec ID : 55
Codec ID/Hint : MP3
Duration : 1h 44mn
Bit rate mode : Constant
Bit rate : 192 Kbps
Channel(s) : 2 channels
Sampling rate : 48.0 KHz
Compression mode : Lossy
Stream size : 144 MiB (12%)
Alignment : Aligned on interleaves
Interleave, duration : 40 ms (1.00 video frame)
Interleave, preload duration : 504 ms
Writing library : LAME3.97
Encoding settings : -m s -V 4 -q 2 -lowpass 18.6 -b 192

Скриншоты






_________________
Подпись отключена за нарушение правил форума


Последний раз редактировалось: slaiderUZ (2012-10-13 18:48), всего редактировалось 2 раз(а)

Создавать темы 11-Окт-2012 16:59

[Профиль]  [ЛС] 

Grock

Стаж: 6 лет 8 месяцев

Сообщений: 637

Симпатии: 113

Тем кто не видел фильма, кадрами уже все рассказано ap
А така фильмец зачетный, Джоделль Ферланд умница, обожаю эту актрису ay

Создавать темы 11-Окт-2012 23:06

[Профиль]  [ЛС] 

slaiderUZ ®

Стаж: 5 лет 9 месяцев

Сообщений: 172

Симпатии: 6

даа.... стоит глянуть на фильм..

_________________
Подпись отключена за нарушение правил форума

Создавать темы 12-Окт-2012 15:19

[Профиль]  [ЛС] 

Max

Стаж: 6 лет 11 месяцев

Сообщений: 70

Симпатии: 2

первый раз слышу про эту актрису

Создавать темы 12-Окт-2012 21:39

[Профиль]  [ЛС] 

slaiderUZ ®

Стаж: 5 лет 9 месяцев

Сообщений: 172

Симпатии: 6

довольно известная актриса, глянь вики

_________________
Подпись отключена за нарушение правил форума

Создавать темы 13-Окт-2012 09:55

[Профиль]  [ЛС] 

DjetFaer

Стаж: 5 лет 8 месяцев

Сообщений: 14

аааа!! Чуток осталось дайте до качать!

Создавать темы 08-Дек-2012 22:16

[Профиль]  [ЛС] 

sinfulblack

Стаж: 5 лет 9 месяцев

Сообщений: 36

дайте пожалуйста скачать

Создавать темы 25-Май-2013 15:27

[Профиль]  [ЛС] 

Machine

Стаж: 5 лет 2 месяца

Сообщений: 209

Симпатии: 68

Видел его давно, но фильм просто Отличный, всем советую.

Создавать темы 07-Авг-2013 19:12

[Профиль]  [ЛС] 

Prowler

Стаж: 4 года 3 месяца

Сообщений: 17

Симпатии: 1

Народ, ну дайте скачать! Пол процента осталось...

Создавать темы 08-Авг-2013 10:37

[Профиль]  [ЛС] 

Machine

Стаж: 5 лет 2 месяца

Сообщений: 209

Симпатии: 68

Prowler, У меня 1 процент остался, а скорость нулевая))) Дай скорости пожалуйста

Создавать темы 08-Авг-2013 17:48

[Профиль]  [ЛС] 

АнгелОК

Стаж: 5 лет 5 месяцев

Сообщений: 17

Симпатии: 1

народ вернитесь на раздачу

Создавать темы 01-Ноя-2013 23:19

[Профиль]  [ЛС] 
Показать сообщения:    
Ответить на тему

Текущее время: 24-Окт 00:09

Часовой пояс: UTC + 5



Вы не можете начинать темы
Вы не можете отвечать на сообщения
Вы не можете редактировать свои сообщения
Вы не можете удалять свои сообщения
Вы не можете голосовать в опросах
Вы не можете прикреплять файлы к сообщениям
Вы не можете скачивать файлы