Усама: Живее всех живых / Osombie (2012) HDRip

Страницы :  1, 2  След.

Ответить на тему
 

tco03 ®

Стаж: 7 лет 1 месяц

Сообщений: 147

Симпатии: 8

Усама: Живее всех живых / Osombie (2012) HDRip
Русское название: Осама: Живее всех живых
Оригинальное название: Osombie
Год выпуска: 2012
Производство: США, Arrowstorm Entertainment
Жанр: Ужасы, Боевик
Перевод: Одноголосый закадровый, любительский
Озвучка / Автор перевода: den904
Субтитры: Отсутствуют-Дата мировой премьеры: 14 мая 2012-Режиссер: Джон Лойд
Продюсер: Пол Грин, Джон Лойд, Джейсон Фэллер
Актеры: Кори Севьер, Ив Мауро, Джасен Вэйд, Даниэль Чачран, Уильям Рубио, Майк Блэк, Дакота Брэдшоу, Эндрю Хэнкок, Пол Хант, Дэнни Джеймс
Описание фильма:
Накануне своей ликвидации Усаме Бен Ладену удаётся устроить на Ближнем Востоке зомби-апокалипсис. Находясь на очередной миссии в Афганистане, отряд спецназа НАТО спасает от зомби-моджахедов американку по имени Дасти, которая рассказывает, что ищет своего брата Дерека. Сам же Дерек пытается выследить якобы убитого Бен Ладена, на деле тоже ставшего ходячим трупом.-Продолжительность: 01:30:17
Качество видео: HDRip
Видеокодек: Xvid
Битрейт видео: ~930 kb/s
Размер кадра: 640x352
Аудиокодек: MP3 (2 ch)
Битрейт аудио: 128 kb/s- -MediaInfo
Общее
Полное имя : D:\торрент-раздачи\Osombie.2012L1.HDRip.700MB.avi
Формат : AVI
Формат/Информация : Audio Video Interleave
Размер файла : 692 Мбайт
Продолжительность : 1 ч. 30 м.
Общий поток : 1071 Кбит/сек
Программа кодирования : Lavf54.16.104
Видео
Идентификатор : 0
Формат : MPEG-4 Visual
Профиль формата : [email protected]
Параметр BVOP формата : Нет
Параметр QPel формата : Нет
Параметр GMC формата : Без точки перехода
Параметр матрицы формата : Default (H.263)
Идентификатор кодека : XVID
Идентификатор кодека/Подсказка : XviD
Продолжительность : 1 ч. 30 м.
Битрейт : 930 Кбит/сек
Ширина : 640 пикселей
Высота : 352 пикселя
Соотношение сторон : 16:9
Частота кадров : 25,000 кадров/сек
Цветовое пространство : YUV
Субдискретизация насыщенности : 4:2:0
Битовая глубина : 8 бит
Тип развёртки : Прогрессивная
Метод сжатия : С потерями
Бит/(Пиксели*Кадры) : 0.165
Размер потока : 601 Мбайт (87%)
Библиотека кодирования : XviD 64
Аудио
Идентификатор : 1
Формат : MPEG Audio
Версия формата : Version 1
Профиль формата : Layer 3
Идентификатор кодека : 55
Идентификатор кодека/Подсказка : MP3
Продолжительность : 1 ч. 30 м.
Вид битрейта : Постоянный
Битрейт : 128 Кбит/сек
Каналы : 2 канала
Частота : 48,0 КГц
Метод сжатия : С потерями
Размер потока : 82,7 Мбайт (12%)
Выравнивание : Соединение по промежуткам
Продолжительность промежутка : 24 мс. (0,60 видеокадр)
Время предзагрузки промежутка : 24 мс.
Кадры из фильма

Скриншоты

[


Последний раз редактировалось: tco03 (2012-10-11 21:50), всего редактировалось 1 раз

Создавать темы 11-Окт-2012 21:39

[Профиль]  [ЛС] 

Asadovdiyor

Стаж: 5 лет 10 месяцев

Сообщений: 192

Чего только не придумают эти америкосы :tm: весь мир уже заселили мертвеками... bz

Создавать темы 11-Окт-2012 22:04

[Профиль]  [ЛС] 

tco03 ®

Стаж: 7 лет 1 месяц

Сообщений: 147

Симпатии: 8

умают эти америкосы весь мир уже заселили
ДА

Создавать темы 11-Окт-2012 22:09

[Профиль]  [ЛС] 

nuclear_cat

Стаж: 6 лет 4 месяца

Сообщений: 29

Удивительно высокий рейтинг кинопоиска. фильм однозначно какашка

Создавать темы 11-Окт-2012 23:05

[Профиль]  [ЛС] 

SNIL

Стаж: 5 лет 10 месяцев

Сообщений: 2624

Симпатии: 341

Такую чуш только они могла придумать

Создавать темы 11-Окт-2012 23:08

[Профиль]  [ЛС] 

nate

Стаж: 6 лет 5 месяцев

Сообщений: 19

Симпатии: 1

Америкосам уже живые не интересны и поэтому они то ли снимают про вампиров то ли про зомби :tm:

Создавать темы 11-Окт-2012 23:22

[Профиль]  [ЛС] 

jajik

Стаж: 5 лет 9 месяцев

Сообщений: 16

Симпатии: 1

Удивительно высокий рейтинг кинопоиска. фильм однозначно какашка
да

Создавать темы 11-Окт-2012 23:35

[Профиль]  [ЛС] 

maxik

Стаж: 6 лет

Сообщений: 32

Уже и да Бен Ладена добрались. Интересна а кто следующий Сталин или Гитлер хотя Гитлер кажись был?

Создавать темы 11-Окт-2012 23:49

[Профиль]  [ЛС] 

dilshod5254

Стаж: 6 лет 7 месяцев

Сообщений: 106

Симпатии: 14

после этого что Наполеон )))

Создавать темы 12-Окт-2012 08:48

[Профиль]  [ЛС] 

tco03 ®

Стаж: 7 лет 1 месяц

Сообщений: 147

Симпатии: 8

Уже и да Бен Ладена добрались. Интересна а кто следующий Сталин или Гитлер хотя Гитлер кажись был?
вдруг можеть быть Вашингтон или другие президенты например Линколна же ссделали фильм про вампиров ......

Создавать темы 12-Окт-2012 08:51

[Профиль]  [ЛС] 

Тима_7771

Стаж: 6 лет 5 месяцев

Сообщений: 81

Симпатии: 4

тв3 ?

Создавать темы 12-Окт-2012 10:24

[Профиль]  [ЛС] 

tco03 ®

Стаж: 7 лет 1 месяц

Сообщений: 147

Симпатии: 8

тв3 ?
нет

Создавать темы 12-Окт-2012 11:03

[Профиль]  [ЛС] 

Max

Стаж: 7 лет

Сообщений: 70

Симпатии: 2

трэш

Создавать темы 12-Окт-2012 21:32

[Профиль]  [ЛС] 

the

Стаж: 5 лет 1 месяц

Сообщений: 34

фекалий

Создавать темы 13-Окт-2012 18:12

[Профиль]  [ЛС] 

adham_boy

Стаж: 7 лет 1 месяц

Сообщений: 122

Симпатии: 9

тупизм тупизм йишйо раз тупизм , америкосьый фуфло

Создавать темы 13-Окт-2012 19:21

[Профиль]  [ЛС] 
Показать сообщения:    
Ответить на тему

Текущее время: 19-Ноя 10:01

Часовой пояс: UTC + 5



Вы не можете начинать темы
Вы не можете отвечать на сообщения
Вы не можете редактировать свои сообщения
Вы не можете удалять свои сообщения
Вы не можете голосовать в опросах
Вы не можете прикреплять файлы к сообщениям
Вы не можете скачивать файлы