Ганнибал: Восхождение / Hannibal Rising [Расширенная версия] (Питер Веббер) [2007, триллер, драма, криминал. BDRip-AVC, 720p] MVO + Original (ENG) + sub (rus)

Ответить на тему
 

Robot-IX ®

Стаж: 5 лет 4 месяца

Сообщений: 223

Симпатии: 9

-Ганнибал: Восхождение [Расширенная версия] / Hannibal Rising (Unrated)-Слоган:: «Всё началось с желания отомстить»- Год выпуска: 2007
Страна: Великобритания, Чехия, Франция, Италия
Жанр: триллер, драма, криминал
Продолжительность: 02:10:33
Перевод: Профессиональный (многоголосый, закадровый) + Оригинал (english)-Режиссер: Питер Веббер
Сценарий: Томас Харрис
Продюсер: Тарак Бен Аммар, Дино Де Лаурентис, Марта Де Лаурентис
Оператор: Бен Дэвис
Композитор: Илан Эшкери, Шигеру Умебаяши-В ролях: Аарон Томас, Гаспар Улье, Гун Ли, Хелена Лиа Тачовска, Ричард Лиф, Доминик Уэст, Рис Иванс, Мишель Вэйд, Ричард Брэйк, Мартин Хьюб ...-Описание: Первая глава жизни самого знаменитого и хитроумного маньяка всех времен… Ему было шесть, когда на его глазах жестоко убили его семью. В двадцать, бежав во Францию, а затем в США, он получил блестящее образование психиатра. Впереди его ждала жизнь, полная привилегий. Но жажда мести за убийство семьи только разгоралась в нем…-Рейтинг:
kinopoisk.ru: 6.977 (11 358)
imdb.com: 6.0 (49 565)
MPAA: R - Лицам до 17 лет обязательно присутствие взрослого-Качество: BDRip
Формат: MKV
Видео кодек: AVC/H.264
Аудио кодек: AC3 (DD 5,1)
Видео: 1280x544 (2,35:1), ~3876 Кбит/сек, 23.976 fps
Аудио Ru #1: AC3, 448 Кбит/сек, 6 каналов, 48.0 КГц - (многоголосый, закадровый)
Аудио Eng #2: AC3, 448 Кбит/сек, 6 каналов, 48.0 КГц - оригинал
Субтитры Ru #1 : SRT1/UTF8 есть.
Размер файла: 4,34-

Знаете ли Вы, что...

  • На роль молодого Ганнибала Лектера пробовались многие молодые актеры, среди которых были Хэйден Кристенсен, Маколей Калкин, Хью Дэнси, Руперт Френд, Доминик Купер, Том Стёрридж и Том Пэйн.
  • В качестве композитора фильма рассматривался Томас Ньюман.
  • На роль солдата, который съедает младшую сестру Ганнибала, режиссер Питер Уэббер хотел пригласить шведского актера Микаэля Персбрандта, но оказалось, что тот уже занят в новом проекте и снимается в Швеции.
  • Со съемочной площадки были украдены бутафорская отрубленная голова и резиновый пенис.
  • На протяжении фильма убивают 25 человек.
  • Когда Ганнибал Лектер вводит себе тиопентал натрия, он играет знаменитые «Гольберг-вариации» Иоганна Себастьяна Баха - это та самая музыка, которая звучала в эпизоде побега Лектера в фильме «Молчание ягнят» (1991). Причем в этом фильме звучит запись исполнения пианиста Гленна Гулда 1955 года, в то время как в других фильмах о Ганнибале Лектере использовалась запись исполнения того же Гленна Гулда, но 1981 года.
  • Актер Стивен Уолтерс (Зигмас Милко) в реальной жизни страдает клаустрофобией.

MI

Общее
Уникальный идентификатор : 227602043726975113985553603472464304932 (0xAB3A8F23E9F043C5959FB9D2060C5B24)
Полное имя : D:\Torent\Hannibal_rising.mkv
Формат : Matroska
Версия формата : Version 2
Размер файла : 4,34 Гбайт
Продолжительность : 2 ч. 10 м.
Общий поток : 4761 Кбит/сек
Дата кодирования : UTC 2010-04-23 09:06:03
Программа кодирования : mkvmerge v2.9.8 ('C'est le bon') built on Aug 13 2009 12:49:06
Библиотека кодирования : libebml v0.7.7 + libmatroska v0.8.1
Видео
Идентификатор : 1
Формат : AVC
Формат/Информация : Advanced Video Codec
Профиль формата : [email protected]
Параметр CABAC формата : Да
Параметр ReFrames формата : 9 кадров
Идентификатор кодека : V_MPEG4/ISO/AVC
Продолжительность : 2 ч. 10 м.
Битрейт : 3876 Кбит/сек
Ширина : 1280 пикселей
Высота : 544 пикселя
Соотношение сторон : 2,35:1
Частота кадров : 23,976 кадра/сек
Цветовое пространство : YUV
Субдискретизация насыщенности : 4:2:0
Битовая глубина : 8 бит
Тип развёртки : Прогрессивная
Бит/(Пиксели*Кадры) : 0.232
Размер потока : 3,44 Гбайт (79%)
Библиотека кодирования : x264 core 93 r1538 bd72d46
Настройки программы : cabac=1 / ref=9 / deblock=1:-3:-3 / analyse=0x3:0x113 / me=umh / subme=9 / psy=1 /psy_rd=1.00:0.00 / mixed_ref=1 / me_range=32 / chroma_me=1 / trellis=1 / 8x8dct=1 / cqm=0 / deadzone=21,11 / fast_pskip=0 / chroma_qp_offset=-2 / threads=3 / sliced_threads=0 / nr=0 / decimate=1 / interlaced=0 / constrained_intra=0 / bframes=10 / b_pyramid=2 / b_adapt=2 / b_bias=0 / direct=2 / wpredb=1 / wpredp=2 / keyint=250 / keyint_min=25 / scenecut=40 / intra_refresh=0 / rc=2pass / mbtree=0 / bitrate=3876 / ratetol=1.0 / qcomp=0.60 / qpmin=10 / qpmax=51 / qpstep=4 / cplxblur=20.0 / qblur=0.5 / ip_ratio=1.40 / pb_ratio=1.30 / aq=1:1.30
Язык : English
Default : Нет
Forced : Нет
Аудио #1
Идентификатор : 2
Формат : AC-3
Формат/Информация : Audio Coding 3
Расширение режима : CM (complete main)
Параметр Endianness формата : Big
Идентификатор кодека : A_AC3
Продолжительность : 2 ч. 10 м.
Вид битрейта : Постоянный
Битрейт : 448 Кбит/сек
Каналы : 6 каналов
Расположение каналов : Front: L C R, Side: L R, LFE
Частота : 48,0 КГц
Битовая глубина : 16 бит
Метод сжатия : С потерями
Задержка видео : 30 мс.
Размер потока : 418 Мбайт (9%)
Язык : Russian
Default : Да
Forced : Нет
Аудио #2
Идентификатор : 3
Формат : AC-3
Формат/Информация : Audio Coding 3
Расширение режима : CM (complete main)
Параметр Endianness формата : Big
Идентификатор кодека : A_AC3
Продолжительность : 2 ч. 10 м.
Вид битрейта : Постоянный
Битрейт : 448 Кбит/сек
Каналы : 6 каналов
Расположение каналов : Front: L C R, Side: L R, LFE
Частота : 48,0 КГц
Битовая глубина : 16 бит
Метод сжатия : С потерями
Размер потока : 418 Мбайт (9%)
Язык : English
Default : Нет
Forced : Нет
Текст
Идентификатор : 4
Формат: UTF-8
Идентификатор кодека : S_TEXT/UTF8
Идентификатор кодека/Информация : UTF-8 Plain Text
Язык : Russian
Default : Да
Forced : Нет

Скриншоты






Последний раз редактировалось: Robot-IX (2012-10-20 00:17), всего редактировалось 1 раз

Создавать темы 19-Окт-2012 23:47

[Профиль]  [ЛС] 

infernal.

Стаж: 7 лет 3 месяца

Сообщений: 117

Симпатии: 1

фильм шедевр и легенда.

Создавать темы 19-Окт-2012 23:50

[Профиль]  [ЛС] 

victor0778

Стаж: 6 лет 6 месяцев

Сообщений: 1670

Симпатии: 142

Robot-IX, эталон оформления, просто, грамотно, доступно и в тоже время красиво.

Создавать темы 20-Окт-2012 00:37

[Профиль]  [ЛС] 

Robot-IX ®

Стаж: 5 лет 4 месяца

Сообщений: 223

Симпатии: 9

спасибо

Создавать темы 20-Окт-2012 00:37

[Профиль]  [ЛС] 

Lucky

Стаж: 7 лет 1 месяц

Сообщений: 55

классный фильм

Создавать темы 20-Окт-2012 05:49

[Профиль]  [ЛС] 

Dilshod_

Стаж: 4 года 6 месяцев

Сообщений: 25

дайте скорости) хочется посмотреть фильм

Создавать темы 11-Мар-2013 23:59

[Профиль]  [ЛС] 

Mustang502

Стаж: 4 года 6 месяцев

Сообщений: 20

Симпатии: 1

Фильм Супер

Создавать темы 08-Апр-2013 08:24

[Профиль]  [ЛС] 

Hong

Стаж: 5 лет 2 месяца

Сообщений: 2

Ганибалы можно скорости а то вообще всё на нуле. Заранее благодарен

Создавать темы 27-Апр-2013 02:45

[Профиль]  [ЛС] 

Dilshod_

Стаж: 4 года 6 месяцев

Сообщений: 25

я на раздаче

Создавать темы 01-Май-2013 18:39

[Профиль]  [ЛС] 

niko73

Стаж: 7 лет 2 месяца

Сообщений: 14

Добавьте пожалуйста скорости , из семи сидов вижу только один.

Создавать темы 02-Май-2013 02:01

[Профиль]  [ЛС] 

Nehtez

Стаж: 1 год 8 месяцев

Сообщений: 75

Симпатии: 34

Фильм можно скачать в другой раздаче: tas-ix.me/viewtopic.php?t=115120

Создавать темы 05-Ноя-2016 00:58

[Профиль]  [ЛС] 
Показать сообщения:    
Ответить на тему

Текущее время: 21-Авг 00:05

Часовой пояс: UTC + 5



Вы не можете начинать темы
Вы не можете отвечать на сообщения
Вы не можете редактировать свои сообщения
Вы не можете удалять свои сообщения
Вы не можете голосовать в опросах
Вы не можете прикреплять файлы к сообщениям
Вы не можете скачивать файлы