Прометей / Prometheus (Ридли Скотт / Ridley Scott) [2012, США, фантастика, триллер, BD>DVD9 (Custom)] Dub (DD 5.1, DTS) + Original Eng + Subs (rus, eng)

Страницы :  1, 2  След.

Ответить на тему
 

tallking ®

Стаж: 6 лет 6 месяцев

Сообщений: 44

Симпатии: 15

ПрометейPrometheus-- Страна: США
Жанр: фантастика, триллер
Год выпуска: 2012
Продолжительность: 02:03:46--Перевод: Профессиональный (дублированный) с BD CEE
Cубтитры: русские, английские--Режиссер: Ридли Скотт / Ridley Scott
В ролях: Нуми Рапас / Noomi Rapace, Майкл Фассбендер / Michael Fassbender, Шарлиз Терон / Charlize Theron, Идрис Эльба / Idris Elba, Гай Пирс / Guy Pearce, Логан Маршалл-Грин / Logan Marshall-Green, Шон Харрис / Sean Harris, Рейф Сполл / Rafe Spall, Иман Эллиотт / Emun Elliott, Бенедикт Вонг / Benedict Wong, Кейт Дики / Kate Dickie--Описание: В поисках сакрального знания группа ученых отправляется в самые темные и неизведанные чертоги вселенной. Именно там, в отдаленных мирах, находясь на пределе своих умственных и физических возможностей, им предстоит вступить в безжалостную схватку за будущее всего человечества…--Рейтинг
kinopoisk.ru: 7.352 (39 653)
imdb.com: 7.40 (166 685)--Доп. информация: Исходником DVD послужил данный (осторожно: ВНЕШНИЙ ТРАФИК!) BDRemux (спасибо за него Skazhutin'у). Звуковые дорожки пересжимались с помощью Tranzcodequi, Sony Vegas 7.0 и DTS HD Encoder Suite. Обработка видео проходила по инструкции Mikky72 с помощью Carbon Coder в 2 прохода (VBR). Меню создано на основе BD и лицензии R5 (за меню огромное спасибо пользователю alut). Чаптеры взяты с ремукса.--Тип релиза: DVD9 (Custom)
Контейнер: DVD-Video
Видео: NTSC 16:9 (720x480) VBR, 6935 Kbps, Auto Letterboxed
Аудио 1: Russian (Dolby AC3, 5.1 ch, 448 кб/с) - Дубляж
Аудио 2: English (Dolby AC3, 5.1 ch, 448 кб/с) - Original
Аудио 3: Russian (DTS, 5.1 ch, 768 кб/с) - Дубляж

MediaInfo

General
Complete name : C:\Prometheus_DVD9\VIDEO_TS\VTS_01_1.VOB
Format : MPEG-PS
File size : 1 024 MiB
Duration : 16mn 20s
Overall bit rate : 8 759 Kbps
Video
ID : 224 (0xE0)
Format : MPEG Video
Format version : Version 2
Format profile : [email protected]
Format settings, BVOP : Yes
Format settings, Matrix : Custom
Duration : 16mn 20s
Bit rate mode : Variable
Bit rate : 6 935 Kbps
Maximum bit rate : 8 000 Kbps
Width : 720 pixels
Height : 480 pixels
Display aspect ratio : 16:9
Frame rate : 23.976 fps
Standard : NTSC
Color space : YUV
Chroma subsampling : 4:2:0
Bit depth : 8 bits
Scan type : Progressive
Scan order : 2:3 Pulldown
Compression mode : Lossy
Bits/(Pixel*Frame) : 0.837
Stream size : 811 MiB (79%)
Audio #1
ID : 189 (0xBD)-128 (0x80)
Format : AC-3
Format/Info : Audio Coding 3
Mode extension : CM (complete main)
Muxing mode : DVD-Video
Duration : 16mn 20s
Bit rate mode : Constant
Bit rate : 448 Kbps
Channel(s) : 6 channels
Channel positions : Front: L C R, Side: L R, LFE
Sampling rate : 48.0 KHz
Bit depth : 16 bits
Compression mode : Lossy
Stream size : 52.4 MiB (5%)
Audio #2
ID : 189 (0xBD)-129 (0x81)
Format : AC-3
Format/Info : Audio Coding 3
Mode extension : CM (complete main)
Muxing mode : DVD-Video
Duration : 16mn 20s
Bit rate mode : Constant
Bit rate : 448 Kbps
Channel(s) : 6 channels
Channel positions : Front: L C R, Side: L R, LFE
Sampling rate : 48.0 KHz
Bit depth : 16 bits
Compression mode : Lossy
Stream size : 52.4 MiB (5%)
Audio #3
ID : 189 (0xBD)-138 (0x8A)
Format : DTS
Format/Info : Digital Theater Systems
Muxing mode : DVD-Video
Duration : 16mn 20s
Bit rate mode : Constant
Bit rate : 755 Kbps
Channel(s) : 6 channels
Channel positions : Front: L C R, Side: L R, LFE
Sampling rate : 48.0 KHz
Bit depth : 24 bits
Compression mode : Lossy
Stream size : 88.2 MiB (9%)
Text #1
ID : 189 (0xBD)-32 (0x20)
Format : RLE
Format/Info : Run-length encoding
Muxing mode : DVD-Video
Text #2
ID : 189 (0xBD)-33 (0x21)
Format : RLE
Format/Info : Run-length encoding
Muxing mode : DVD-Video
Menu

DVDInfo

Title: Prometheus_DVD9
Size: 7.81 Gb ( 8 188 674,00 KBytes ) - DVD-9
Enabled regions: 1, 2, 3, 4, 5, 6, 7, 8
VTS_01 :
Play Length: 02:03:39
Video: NTSC 16:9 (720x480) VBR, Auto Letterboxed
Audio:
Russian, AC3, 3/2 (L,C,R,SL,SR)+LFE ch, 448 kbps, Delay 0 mSec
English, AC3, 3/2 (L,C,R,SL,SR)+LFE ch, 448 kbps, Delay 0 mSec
Russian, DTS, 3/2 (L,C,R,SL,SR), 768 kbps, Delay 0 mSec
Subtitles:
Russian
English
Russian

Бриф по изготовлению DVD

Видео
Rhozet Carbon Coder - конвертация видео
AviSynth - обработка видео
FFMpegSource2 - индексирование
Работа со звуком
TranzcodeGUI - извлечение WAV
Sonic Vegas 7.0 - кодирование из формата WAV в AC3
DTS HD Encoder Suite - кодирование из формата WAV в DTS
Субтитры
MKVextractGUI - извлечение
Txt2sup - конвертирование
DVDRemake Pro - корректировка цветовых схем
Работа с меню и реавторинг
DVD Architect Pro - авторинг диска
DVDRemake Pro - авторинг диска
Adobe Photoshop - редактирование меню

Скрипт

LoadPlugin("C:\Program Files\ffms-2.17\ffms2.dll")
FFVideoSource("C:\BD-DVD\Prometheus.2012.1080p.AVCRemux.2xRus.Ukr.3xEng.mkv")
LoadPlugin("C:\Program Files\AutoYUY2\AutoYUY2.dll")
LoadPlugin("C:\Program Files\ColorMatrix\ColorMatrix.dll")
AutoYUY2()
ColorMatrix(mode="Rec.709->Rec.601", inputFR=false, clamp=0)
BicubicResize(720, 480, 0, 0.5)
AddBorders (0,0,0,0)
AssumeFPS ("ntsc_film")

Скриншоты меню

[/url]

Скриншоты

Адрес оригинальной раздачи (Осторожно: ВНЕ TAS-IX!!!)

http://rutracker.org/forum/viewtopic.php?t=4214749
-


Последний раз редактировалось: tallking (2012-11-06 14:36), всего редактировалось 6 раз(а)

Создавать темы 21-Окт-2012 22:10

[Профиль]  [ЛС] 

DMiTRY

Стаж: 6 лет 6 месяцев

Сообщений: 649

Симпатии: 28

зачётный релиз.+Автору,постарался.

Создавать темы 21-Окт-2012 22:14

[Профиль]  [ЛС] 

ALEX007

Стаж: 5 лет 10 месяцев

Сообщений: 77

Симпатии: 1

ну и размерчик

Создавать темы 21-Окт-2012 22:15

[Профиль]  [ЛС] 

tallking ®

Стаж: 6 лет 6 месяцев

Сообщений: 44

Симпатии: 15

Автор не я. Перезалил с рутрекера.

Создавать темы 21-Окт-2012 22:32

[Профиль]  [ЛС] 

Бехзод

Стаж: 5 лет 3 месяца

Сообщений: 6

Автор не я. Перезалил с рутрекера.
Всё равно молодец!!! ag

Создавать темы 21-Окт-2012 22:41

[Профиль]  [ЛС] 

filth

Стаж: 6 лет 4 месяца

Сообщений: 25

Симпатии: 1

Шикарно...

Создавать темы 21-Окт-2012 23:34

[Профиль]  [ЛС] 

xumoyun2550

Стаж: 5 лет 10 месяцев

Сообщений: 98

Симпатии: 2

Ну даа

Создавать темы 21-Окт-2012 23:43

[Профиль]  [ЛС] 

filth

Стаж: 6 лет 4 месяца

Сообщений: 25

Симпатии: 1

Спасибо! Завтро, обязательно начну качать.

Создавать темы 22-Окт-2012 02:34

[Профиль]  [ЛС] 

exciter

Стаж: 7 лет 5 месяцев

Сообщений: 158

Симпатии: 2

СПС !!!

Создавать темы 23-Окт-2012 10:16

[Профиль]  [ЛС] 

rra

Стаж: 5 лет 7 месяцев

Сообщений: 17

Чета у мне скачка с этом файл каждый пиром Download speed 10~15 kB/s а Upload speed 150~240 kB/s
ну ставьте пиры своего скорость максимально. Please!!! bu

Создавать темы 23-Окт-2012 18:13

[Профиль]  [ЛС] 

rra

Стаж: 5 лет 7 месяцев

Сообщений: 17

Чета у мне скачка с этом филма каждый пиром Download speed 10~15 kB/s а Upload speed 150~240 kB/s
ну ставьте пиры своего скорость максимально. Please!!!

Создавать темы 23-Окт-2012 18:58

[Профиль]  [ЛС] 

alx777

Стаж: 5 лет 9 месяцев

Сообщений: 87

Симпатии: 8

Фильм хороший.Разделом только ошиблись.

Создавать темы 23-Окт-2012 19:37

[Профиль]  [ЛС] 

tallking ®

Стаж: 6 лет 6 месяцев

Сообщений: 44

Симпатии: 15

Чета у мне скачка с этом филма каждый пиром Download speed 10~15 kB/s а Upload speed 150~240 kB/s
ну ставьте пиры своего скорость максимально. Please!!!
У меня отдача без ограничений, канал 1 мб/с на upload.
Фильм хороший.Разделом только ошиблись.
А в какой раздел это отнести? Вроде фильм свежий, 2012 года выпуска.

Создавать темы 23-Окт-2012 20:28

[Профиль]  [ЛС] 

alx777

Стаж: 5 лет 9 месяцев

Сообщений: 87

Симпатии: 8

А в какой раздел это отнести? Вроде фильм свежий, 2012 года выпуска.
Вам, его нужно перенести сюда http://tas-ix.net/viewforum.php?f=183.В раздел HD видео

Создавать темы 23-Окт-2012 20:32

[Профиль]  [ЛС] 

filth

Стаж: 6 лет 4 месяца

Сообщений: 25

Симпатии: 1

Так это же двд9 (custom), то есть двд9 сделанный с блюрея, а так как раздела для двд раздач на трекере нет, то все правильно.

Создавать темы 23-Окт-2012 20:53

[Профиль]  [ЛС] 
Показать сообщения:    
Ответить на тему

Текущее время: 24-Ноя 06:50

Часовой пояс: UTC + 5



Вы не можете начинать темы
Вы не можете отвечать на сообщения
Вы не можете редактировать свои сообщения
Вы не можете удалять свои сообщения
Вы не можете голосовать в опросах
Вы не можете прикреплять файлы к сообщениям
Вы не можете скачивать файлы