Стрелец неприкаянный (Георгий Шенгелия) [1993, мелодрама, фантастика, комедия, DVDRip]

Ответить на тему
 

tallking ®

Стаж: 6 лет 5 месяцев

Сообщений: 44

Симпатии: 15

Стрелец неприкаянный
Жанр: мелодрама, фантастика, комедия
Год выпуска: 1993
Продолжительность: 01:31:21
Режиссёр: Георгий Шенгелия
В ролях:
Владимир Ильин
Татьяна Догилева
Ирина Феофанова
Юрий Сенкевич
Николай Пастухов
Ренат Давлетьяров
Борис Лудмер
Александр Боровиков
Александр Коданев
Александр Кулямин
Описание:
Бывший русский журналист Герман, находясь в эмиграции в Париже и влача полунищенское существование, получает известие о тяжелой болезни своего деда, знаменитого ученого-физика. Вернувшись в Россию, Герман узнает от умирающего деда о созданном им коридоре времени.
Герой решает воспользоваться этим изобретением для поправки своего материального положения. Неоднократные перемещения в 60-е годы и обратно привели к многочисленным трагикомедийным ситуациям. Все бы ничего, но тут еще и власти заподозрили неладное… Преследуемый в прошлом и настоящем герой попадает в безвыходное положение, но…
Доп. информация:
Качество видео: DVDRip, исходник (внимание, ВНЕШНИЙ ТРАФИК!) - DVD5 LAND
Формат видео: AVI
Видео: 688x528 (1.30:1), 25 fps, XviD build 63 ~2076 kbps avg, 0.23 bit/pixel
Аудио: 48 kHz, AC3 Dolby Digital, 2/0 (L,R) ch, ~192 kbps

MediaInfo

Общее
Полное имя : ...Стрелец неприкаянный_1.46.avi
Формат : AVI
Формат/Информация : Audio Video Interleave
Размер файла : 1,45 Гбайт
Продолжительность : 1 ч. 31 м.
Общий поток : 2279 Кбит/сек
Программа кодирования : VirtualDubMod 1.5.10.3 | www.virtualdub-fr.org || (build 2550/release)
Библиотека кодирования : VirtualDubMod build 2550/release
Видео
Идентификатор : 0
Формат : MPEG-4 Visual
Профиль формата : Advanced [email protected]
Параметр BVOP формата : 1
Параметр QPel формата : Нет
Параметр GMC формата : Без точки перехода
Параметр матрицы формата : Выборочная
Идентификатор кодека : XVID
Идентификатор кодека/Подсказка : XviD
Продолжительность : 1 ч. 31 м.
Битрейт : 2077 Кбит/сек
Ширина : 688 пикселей
Высота : 528 пикселей
Соотношение сторон : 4:3
Частота кадров : 25,000 кадров/сек
Цветовое пространство : YUV
Субдискретизация насыщенности : 4:2:0
Битовая глубина : 8 бит
Тип развёртки : Прогрессивная
Метод сжатия : С потерями
Бит/(Пиксели*Кадры) : 0.229
Размер потока : 1,33 Гбайт (91%)
Библиотека кодирования : XviD 63
Аудио
Идентификатор : 1
Формат : AC-3
Формат/Информация : Audio Coding 3
Расширение режима : CM (complete main)
Идентификатор кодека : 2000
Продолжительность : 1 ч. 31 м.
Вид битрейта : Постоянный
Битрейт : 192 Кбит/сек
Каналы : 2 канала
Расположение каналов : Front: L R
Частота : 48,0 КГц
Битовая глубина : 16 бит
Метод сжатия : С потерями
Размер потока : 125 Мбайт (8%)
Выравнивание : Разделение по промежуткам
Продолжительность промежутка : 40 мс. (1,00 видеокадр)
Время предзагрузки промежутка : 500 мс.

Скриншот c названием фильма

Скриншоты

Адрес оригинальной раздачи (Осторожно: ВНЕ TAS-IX!!!)

http://rutracker.org/forum/viewtopic.php?t=3735556

Создавать темы 22-Окт-2012 13:15

[Профиль]  [ЛС] 

senya

Стаж: 7 лет

Сообщений: 14

СПАСИБО огромное. bp

Создавать темы 23-Окт-2012 16:20

[Профиль]  [ЛС] 

tallking ®

Стаж: 6 лет 5 месяцев

Сообщений: 44

Симпатии: 15

Пожалуйста.

Создавать темы 23-Окт-2012 20:25

[Профиль]  [ЛС] 

tallking ®

Стаж: 6 лет 5 месяцев

Сообщений: 44

Симпатии: 15

Сидирование прекращаю, т.к. выкладываю новое. Скачавших прошу некоторое время поддерживать раздачу.

Создавать темы 29-Окт-2012 02:08

[Профиль]  [ЛС] 
Показать сообщения:    
Ответить на тему

Текущее время: 17-Окт 14:32

Часовой пояс: UTC + 5



Вы не можете начинать темы
Вы не можете отвечать на сообщения
Вы не можете редактировать свои сообщения
Вы не можете удалять свои сообщения
Вы не можете голосовать в опросах
Вы не можете прикреплять файлы к сообщениям
Вы не можете скачивать файлы