Папа-досвидос / That's My Boy (Шон Андерс) [2012 г., Комедия, BDRip]

Ответить на тему
 

Javokhir ®

Стаж: 5 лет 10 месяцев

Сообщений: 31

Симпатии: 4

Папа-досвидос / That's My Boy
Год выпуска: 2012
Страна: США, Columbia Pictures, Happy Madison Productions
Жанр: Комедия
Продолжительность: 01:56:03
Перевод: Профессиональный (полное дублирование) [Лицензия]
Примечание: Отсутствует 1.5 минуты перевода!
Режиссер: Шон Андерс
В ролях: Адам Сэндлер, Энди Сэмберг, Лейтон Мистер, Майло Вентимилья, Ванилла Айс, Пегги Стюарт, Блейк Кларк, Меган Фэй, Тони Орландо, Джеймс Каан, Сьюзен Сарандон, Уилл Форте, Рэйчел Дрэч, Ник Свардсон, Луэнелль, Сиара, Ана Гастейер, Ева Амурри, Джастин Уивер, Дэн Патрик, Рекс Райан, Дэна Мин Гудман, Джулия Ли Волов, Ребекка Маршалл, Эбигейл Клейн, Джеки Сэндлер, Эрин Эндрюс, Сэм Кауфман, Дэнни Мендельсон, Колин Куинн, Пэтти Росс, Крис Титон, Айан Зиринг, Майк Сэндлер, Сэди Сэндлер, Санни Сэндлер, Абдулаи Нгом, Барон Дэвис, Эмбер Пол, Брэд Грюнберг, Деннис Дуган, Нэнси Йи, Кодзи Катаока, Джейсон Венеция, Скотт Т. Бердсли, Сью Ли, Роберт Харви, Пол Пабст
Описание: Переспав с «очень плохой училкой» прямо в школе, тинейджер становится отцом «по залету», а его зрелая пассия попадает в тюрьму за совращение малолетнего. Теперь юный папа-одиночка вынужден заботиться о сыне до его совершеннолетия, а затем благополучно исчезает в неизвестном направлении. И вот, много лет спустя, оказавшись на мели, эксцентричный папаша-инфантил словно ураган врывается в жизнь сына накануне его свадьбы, и своими безумными выходками переворачивает всё вверх дном.
Качество: BDRip [720p]
Формат: MKV
Видео кодек: x264
Аудио кодек: AC3
Видео: 1280x528, 2313 Кбит/сек, 23,976 кадр/сек, AVC, x264, 2,40:1, 0.143 Бит/[Пиксели*Кадры], 2pass
Аудио: AC-3, 384 Кбит/сек, 6 канала(ов), 48,0 КГц

Скриншоты







Последний раз редактировалось: Javokhir (2012-10-24 19:50), всего редактировалось 3 раз(а)

Создавать темы 24-Окт-2012 15:31

[Профиль]  [ЛС] 

CapsLock

Стаж: 5 лет 7 месяцев

Сообщений: 56

Симпатии: 3

фильм Ржака

Создавать темы 24-Окт-2012 16:50

[Профиль]  [ЛС] 

DMiTRY

Стаж: 6 лет 6 месяцев

Сообщений: 649

Симпатии: 28

через несколько дней залью нормальный BD-RIP.

Создавать темы 24-Окт-2012 18:17

[Профиль]  [ЛС] 

Топик был перенесен из форума Зарубежное кино в форум HD-AVC

victor0778

Создавать темы 24-Окт-2012 19:07

 

victor0778

Стаж: 6 лет 9 месяцев

Сообщений: 1670

Симпатии: 142

Тех. данные вашего релиза.
Посмотрите и исправьте
Видео
Идентификатор : 1
Формат : AVC
Формат/Информация : Advanced Video Codec
Профиль формата : [email protected]
Параметр CABAC формата : Да
Параметр ReFrames формата : 4 кадра
Идентификатор кодека : V_MPEG4/ISO/AVC
Продолжительность : 1 ч. 56 м.
Битрейт : 2313 Кбит/сек
Ширина : 1280 пикселей
Высота : 528 пикселей
Соотношение сторон : 2,40:1
Соотношение сторон в оригинале : 2,40:1
Частота кадров : 23,976 кадра/сек
Цветовое пространство : YUV
Субдискретизация насыщенности : 4:2:0
Битовая глубина : 8 бит
Тип развёртки : Прогрессивная
Бит/(Пиксели*Кадры) : 0.143
Размер потока : 1,83 Гбайт (84%)
Заголовок : Папа-досвидос
Библиотека кодирования : x264 core 128 r2216 198a7ea
Настройки программы : cabac=1 / ref=4 / deblock=1:0:0 / analyse=0x3:0x133 / me=hex / subme=7 / psy=1 / psy_rd=1.00:0.00 / mixed_ref=1 / me_range=16 / chroma_me=1 / trellis=1 / 8x8dct=1 / cqm=0 / deadzone=21,11 / fast_pskip=1 / chroma_qp_offset=-2 / threads=12 / lookahead_threads=2 / sliced_threads=0 / nr=0 / decimate=1 / interlaced=0 / bluray_compat=0 / constrained_intra=0 / bframes=3 / b_pyramid=2 / b_adapt=1 / b_bias=0 / direct=1 / weightb=1 / open_gop=0 / weightp=2 / keyint=240 / keyint_min=23 / scenecut=40 / intra_refresh=0 / rc_lookahead=40 / rc=2pass / mbtree=1 / bitrate=2313 / ratetol=1.0 / qcomp=0.60 / qpmin=10 / qpmax=51 / qpstep=4 / cplxblur=20.0 / qblur=0.5 / ip_ratio=1.40 / aq=1:1.00
Язык : English
Default : Да
Forced : Нет
Аудио
Идентификатор : 2
Формат : AC-3
Формат/Информация : Audio Coding 3
Расширение режима : CM (complete main)
Идентификатор кодека : A_AC3
Продолжительность : 1 ч. 56 м.
Вид битрейта : Постоянный
Битрейт : 384 Кбит/сек
Каналы : 6 каналов
Расположение каналов : Front: L C R, Side: L R, LFE
Частота : 48,0 КГц
Битовая глубина : 16 бит
Метод сжатия : С потерями
Размер потока : 319 Мбайт (14%)
Заголовок : Дублированный
Язык : Russian
Default : Да
Forced : Нет

Создавать темы 24-Окт-2012 19:14

[Профиль]  [ЛС] 

CapsLock

Стаж: 5 лет 7 месяцев

Сообщений: 56

Симпатии: 3

DMiTRY, ждёмс)

Создавать темы 24-Окт-2012 19:19

[Профиль]  [ЛС] 

lyuta

Стаж: 6 лет 9 месяцев

Сообщений: 193

Симпатии: 3

скорости плиз!

Создавать темы 07-Дек-2012 00:22

[Профиль]  [ЛС] 
Показать сообщения:    
Ответить на тему

Текущее время: 19-Ноя 04:24

Часовой пояс: UTC + 5



Вы не можете начинать темы
Вы не можете отвечать на сообщения
Вы не можете редактировать свои сообщения
Вы не можете удалять свои сообщения
Вы не можете голосовать в опросах
Вы не можете прикреплять файлы к сообщениям
Вы не можете скачивать файлы