История мира в двух часах (Дуглас Коэн) [2011 г., Документальный, история, научный, BDRip]

Ответить на тему
 

Arsen-1993 ®

Стаж: 4 года 10 месяцев

Сообщений: 18

Симпатии: 1

История мира в двух часах 3D Год выпуска: 2011
Страна: США, History Channel
Жанр: Документальный, история, научный
Продолжительность: 01:28:03
Перевод: Профессиональный (многоголосый, закадровый), cубтитры: Русские вшитые softsub (SRT)
Режиссер: Дуглас Коэн
Описание: Краткая история мира от Большого взрыва до нашего времени. Как каменный век привел к изобретению паровоза. Как взошли первые семена городов и цивилизаций. Все началось 13,7 миллиардов лет назад с крошечной Вселенной, в которой все было в одном месте. Потом
- Большой взрыв. Вся энергия, когда-либо существовавшая, появилась в один миг. Потом образовалась Земля, а на ней сформировались благоприятные для жизни условия.

Качество: BDRip
Формат: MKV
Формат 3D: Горизонтальная анаморфная стереопара
Видео кодек: H.264
Аудио кодек: AC3
Видео: 1920х1080 (16:9), 23,976 fps, AVC (x264), [email protected] ~13.0 Mbps avg, 0.46 bit/pixel
Аудио: Русский:
48 kHz, АС3, 2 ch, ~192.00 kbps avg [Профессиональный многоголосый]
Аудио: Английский: 48 kHz, АС3, 6 ch, ~640.00 kbps avg [Оригинал]

MediaInfo

Формат : Matroska
Версия формата : Version 2
Размер файла : 8,65 Гбайт
Продолжительность : 1 ч. 28 м.
Общий поток : 14,1 Мбит/сек
Название фильма : History Of The World In Two Hours (3D) 2011 (by arsen-1993)
Дата кодирования : UTC 2012-09-29 19:21:27
Программа кодирования : mkvmerge v5.8.0 ('No Sleep / Pillow') built on Sep 2 2012 15:37:04
Библиотека кодирования : libebml v1.2.3 + libmatroska v1.3.0
Видео
Идентификатор : 1
Формат : AVC
Формат/Информация : Advanced Video Codec
Профиль формата : [email protected]
Параметр CABAC формата : Да
Параметр ReFrames формата : 4 кадра
Идентификатор кодека : V_MPEG4/ISO/AVC
Битрейт : 13,0 Мбит/сек
Ширина : 1920 пикселей
Высота : 1080 пикселей
Соотношение сторон : 16:9
Режим частоты кадров : Переменный
Частота кадров в оригинале : 23,976 кадра/сек
Цветовое пространство : YUV
Субдискретизация насыщенности : 4:2:0
Битовая глубина : 8 бит
Тип развёртки : Прогрессивная
Заголовок : BDrip by arsen-1993
Библиотека кодирования : x264 core 119 r2106 07efeb4
Настройки программы : cabac=1 / ref=4 / deblock=1:-3:-3 / analyse=0x3:0x113 / me=umh / subme=9 / psy=1 / psy_rd=1.00:0.15 / mixed_ref=1 / me_range=16 / chroma_me=1 / trellis=2 / 8x8dct=1 / cqm=0 / deadzone=21,11 / fast_pskip=1 / chroma_qp_offset=-3 / threads=3 / sliced_threads=0 / nr=0 / decimate=1 / interlaced=0 / bluray_compat=0 / constrained_intra=0 / bframes=6 / b_pyramid=2 / b_adapt=2 / b_bias=0 / direct=3 / weightb=1 / open_gop=0 / weightp=2 / keyint=250 / keyint_min=23 / scenecut=40 / intra_refresh=0 / rc_lookahead=60 / rc=crf / mbtree=1 / crf=17.5 / qcomp=0.60 / qpmin=10 / qpmax=51 / qpstep=4 / vbv_maxrate=40000 / vbv_bufsize=40000 / crf_max=0.0 / nal_hrd=none / frame-packing=4 / ip_ratio=1.40 / aq=1:0.70
Язык : English
Default : Да
Forced : Нет
Аудио #1
Идентификатор : 2
Формат : AC-3
Формат/Информация : Audio Coding 3
Расширение режима : CM (complete main)
Параметр Endianness формата : Big
Идентификатор кодека : A_AC3
Продолжительность : 1 ч. 28 м.
Вид битрейта : Постоянный
Битрейт : 192 Кбит/сек
Каналы : 2 канала
Расположение каналов : Front: L R
Частота : 48,0 КГц
Битовая глубина : 16 бит
Метод сжатия : С потерями
Размер потока : 121 Мбайт (1%)
Заголовок : Аудио дорога с канала Культура (by arsen-1993)
Язык : Russian
Default : Да
Forced : Нет
Аудио #2
Идентификатор : 3
Формат : AC-3
Формат/Информация : Audio Coding 3
Расширение режима : CM (complete main)
Параметр Endianness формата : Big
Идентификатор кодека : A_AC3
Продолжительность : 1 ч. 28 м.
Вид битрейта : Постоянный
Битрейт : 640 Кбит/сек
Каналы : 6 каналов
Расположение каналов : Front: L C R, Side: L R, LFE
Частота : 48,0 КГц
Битовая глубина : 16 бит
Метод сжатия : С потерями
Размер потока : 403 Мбайт (5%)
Заголовок : Original
Язык : English
Default : Нет
Forced : Нет
Текст
Идентификатор : 4
Формат : UTF-8
Идентификатор кодека : S_TEXT/UTF8
Идентификатор кодека/Информация : UTF-8 Plain Text
Заголовок : Полные (by arsen-1993)
Язык : Russian
Default : Нет
Forced : Нет
Меню
00:00:00.000 : :1
00:13:07.370 : :2
00:16:27.195 : :3
00:26:27.419 : :4
00:33:50.695 : :5
00:45:46.911 : :6
00:58:16.076 : :7
01:07:39.264 : :8
01:14:26.462 : :9
01:20:42.713 : :10
View count: 9

Скриншоты






Для оценки качества 3D - Анимация











Последний раз редактировалось: Arsen-1993 (2012-11-12 01:01), всего редактировалось 5 раз(а)

Создавать темы 28-Окт-2012 17:01

[Профиль]  [ЛС] 

Mixer City

Стаж: 6 лет 7 месяцев

Сообщений: 754

Симпатии: 63

Arsen-1993, допиши тип 3D.

Создавать темы 29-Окт-2012 13:53

[Профиль]  [ЛС] 

feniksqip

Стаж: 5 лет 3 месяца

Сообщений: 26

Симпатии: 1

Скажите а без очков на такое как ? смотреть можно?

Создавать темы 04-Ноя-2012 16:39

[Профиль]  [ЛС] 

Arsen-1993 ®

Стаж: 4 года 10 месяцев

Сообщений: 18

Симпатии: 1

feniksqip,
Можно в режиме 2D, в плеере Stereoscopic Player)

Создавать темы 04-Ноя-2012 17:23

[Профиль]  [ЛС] 

germes

Стаж: 4 года 11 месяцев

Сообщений: 25

Симпатии: 1

народ скорости дайти по возможности конечно
спасибо

Создавать темы 11-Дек-2012 20:40

[Профиль]  [ЛС] 

germes

Стаж: 4 года 11 месяцев

Сообщений: 25

Симпатии: 1

народ или встаньте норм на раздачу или вообще убирайтесь с раздачи если стоите мертвым грузом
Из--за вас не могу позвать скачавших((

Создавать темы 20-Дек-2012 19:36

[Профиль]  [ЛС] 

Tolik4523

Стаж: 5 лет 7 месяцев

Сообщений: 271

Симпатии: 27

То что субтитры вшитые это плохо, картинку портят.

Создавать темы 15-Мар-2013 18:43

[Профиль]  [ЛС] 
Показать сообщения:    
Ответить на тему

Текущее время: 18-Авг 15:55

Часовой пояс: UTC + 5



Вы не можете начинать темы
Вы не можете отвечать на сообщения
Вы не можете редактировать свои сообщения
Вы не можете удалять свои сообщения
Вы не можете голосовать в опросах
Вы не можете прикреплять файлы к сообщениям
Вы не можете скачивать файлы