Максимальный срок / Maximum Conviction (Киони Ваксман) [2012 г., Боевик, Приключения, Триллер, HDRip]

Ответить на тему
 

Rock321123 ®

Стаж: 6 лет 10 месяцев

Сообщений: 94

Симпатии: 5

Максимальный срок / Maximum Conviction
Год выпуска: 2012
Страна: США
Жанр: Боевик, Приключения, Триллер
Продолжительность: 01:37:42
Перевод:Любительской (одноголосный)
Режиссер: Киони Ваксман
В ролях: Кирби Морроу, Майкл Паре, Стив Остин, Стивен Сигал, Тич Грант, Зак Сантьяго, Стеф Сонг, Брен Фостер, Алийа О’Брайен, Кристофер Гордон
Описание: Бывшие сотрудники секретного оперативного подразделения Том Стил и его напарник Мэннинг получают задание — осуществить процедуру закрытия старой тюрьмы, для чего им поручают проконтролировать прибытие двух женщин-заключенных.
С первого взгляда, необременительное дело вскоре превращается в поле боевых действий — профессиональная группа наёмников проникает в тюрьму с целью — любой ценой отыскать вновь прибывших узниц. Выяснив, кем являются эти женщины на самом деле, оперативник Стил понимает, что он оказался втянут в нечто более опасное, чем он мог себе представить…
Качество: HDRip
Формат: AVI
Видео кодек: XviD
Аудио кодек: AC3
Видео: XviD, 720x400, 23.976 fps, 1615 kbit/s
Аудио: AC-3, 448 Kbps, 6 channels, 44.1 KHz

Скриншоты




Mediainfo

Video
ID : 0
Format : MPEG-4 Visual
Format profile : Advanced [email protected]
Format settings, BVOP : 2
Format settings, QPel : No
Format settings, GMC : No warppoints
Format settings, Matrix : Default (H.263)
Muxing mode : Packed bitstream
Codec ID : XVID
Codec ID/Hint : XviD
Duration : 1h 37mn
Bit rate : 1 615 Kbps
Width : 720 pixels
Height : 400 pixels
Display aspect ratio : 16:9
Frame rate : 23.976 fps
Color space : YUV
Chroma subsampling : 4:2:0
Bit depth : 8 bits
Scan type : Progressive
Compression mode : Lossy
Bits/(Pixel*Frame) : 0.234
Stream size : 1.10 GiB (78%)
Writing library : XviD 63
Audio
ID : 1
Format : AC-3
Format/Info : Audio Coding 3
Mode extension : CM (complete main)
Format settings, Endianness : Big
Codec ID : 2000
Duration : 1h 37mn
Bit rate mode : Constant
Bit rate : 448 Kbps
Channel(s) : 6 channels
Channel positions : Front: L C R, Side: L R, LFE
Sampling rate : 44.1 KHz
Bit depth : 16 bits
Compression mode : Lossy
Stream size : 313 MiB (22%)
Alignment : Split accross interleaves
Interleave, duration : 42 ms (1.00 video frame)
Interleave, preload duration : 500 ms


Последний раз редактировалось: Rock321123 (2012-11-01 07:13), всего редактировалось 1 раз

Создавать темы 31-Окт-2012 21:08

[Профиль]  [ЛС] 

Titanum

Стаж: 4 года 9 месяцев

Сообщений: 39

Симпатии: 1

сид оффлайновец ))) кача не будет))

Создавать темы 31-Окт-2012 22:05

[Профиль]  [ЛС] 

baxodir_A

Стаж: 7 лет 1 месяц

Сообщений: 154

Симпатии: 7

давай скорость

_________________
Подпись отключена за нарушение правил форума

Создавать темы 31-Окт-2012 22:11

[Профиль]  [ЛС] 

dimanjon

Стаж: 5 лет 7 месяцев

Сообщений: 107

Симпатии: 9

качка не идет((

Создавать темы 31-Окт-2012 23:08

[Профиль]  [ЛС] 

Сухарь

Стаж: 4 года 9 месяцев

Сообщений: 4

мда... не качается

Создавать темы 31-Окт-2012 23:19

[Профиль]  [ЛС] 

bbk

Стаж: 6 лет 9 месяцев

Сообщений: 435

Симпатии: 479



Последний раз редактировалось: bbk (2013-02-03 19:36), всего редактировалось 1 раз

Создавать темы 01-Ноя-2012 10:44

[Профиль]  [ЛС] 

Rock321123 ®

Стаж: 6 лет 10 месяцев

Сообщений: 94

Симпатии: 5

святослав арий, ))

Создавать темы 04-Ноя-2012 02:37

[Профиль]  [ЛС] 

ислом

Стаж: 4 года 11 месяцев

Сообщений: 32

Симпатии: 2

Создавать темы 04-Ноя-2012 09:48

[Профиль]  [ЛС] 

Asadovdiyor

Стаж: 5 лет 7 месяцев

Сообщений: 192

фильм что и следовало ожидать дешёвый и скучный, хорошо что Steve Austin зажигал атобы точно уснул...

Создавать темы 04-Ноя-2012 19:12

[Профиль]  [ЛС] 

StevenS

Стаж: 4 года 11 месяцев

Сообщений: 4

4ё качка не идёт???

Создавать темы 30-Ноя-2012 22:16

[Профиль]  [ЛС] 
Показать сообщения:    
Ответить на тему

Текущее время: 21-Авг 04:10

Часовой пояс: UTC + 5



Вы не можете начинать темы
Вы не можете отвечать на сообщения
Вы не можете редактировать свои сообщения
Вы не можете удалять свои сообщения
Вы не можете голосовать в опросах
Вы не можете прикреплять файлы к сообщениям
Вы не можете скачивать файлы