Дружинники / The Watch (Акива Шаффер) [2012 г., Комедия, Фантастика, DVDRip]

Ответить на тему
 

Rock321123 ®

Стаж: 7 лет 2 месяца

Сообщений: 94

Симпатии: 5

Дружинники / The Watch
Год выпуска: 2012
Страна: США
Жанр: Комедия, Фантастика
Продолжительность: 01:42:11
Перевод: Профессиональный (полное дублирование)[звук с CAMRip]
Режиссер: Акива Шаффер
В ролях: Бен Стиллер, Билли Крудап, Винс Вон, Джона Хилл, Николас Браун, Р. Ли Эрми, Ричард Айоаде, Розмари ДеУитт, Уилл Форте, Эрин Мориарти
Описание: Сюжет фильма разворачивается вокруг дружной компании соседей, организовавших дружину ради патрулирования окрестностей и поддержания порядка. В действительности благие намерения были лишь поводом хотя бы изредка сбегать от семьи, дабы покутить вечерком в сугубо мужской компании. Безоблачная жизнь заканчивается в тот момент, когда соседский дозор случайно узнаёт о заговоре с целью уничтожить мир.
Качество: DVDRip
Формат: AVI
Видео кодек: XviD
Аудио кодек: MP3, AC3
Видео: 720x304 (2.37:1), 23.976 fps, XviD MPEG-4 ~1599 kbps avg, 0.30 bit/pixel
Аудио 1: 48 kHz, MPEG Layer 3, 2 ch ~128.00 kbps avg / [DUB][звук с CAMRip]
Аудио 2: 48 kHz, AC3 Dolby Digital, 3/2 (L,C,R,l,r) + LFE ch ~192.00 kbps avg / [ENG]
Насчет звука не парьтесь звук нормальный

Скриншоты




Mediainfo

Video
ID : 0
Format : MPEG-4 Visual
Format profile : Advanced [email protected]
Format settings, BVOP : 2
Format settings, QPel : No
Format settings, GMC : No warppoints
Format settings, Matrix : Default (H.263)
Muxing mode : Packed bitstream
Codec ID : XVID
Codec ID/Hint : XviD
Duration : 1h 42mn
Bit rate : 1 600 Kbps
Width : 720 pixels
Height : 304 pixels
Display aspect ratio : 2.35:1
Frame rate : 23.976 fps
Color space : YUV
Chroma subsampling : 4:2:0
Bit depth : 8 bits
Scan type : Progressive
Compression mode : Lossy
Bits/(Pixel*Frame) : 0.305
Stream size : 1.14 GiB (83%)
Writing library : XviD 64
Audio #1
ID : 1
Format : MPEG Audio
Format version : Version 1
Format profile : Layer 3
Mode : Dual mono
Codec ID : 55
Codec ID/Hint : MP3
Duration : 1h 42mn
Bit rate mode : Constant
Bit rate : 128 Kbps
Channel(s) : 2 channels
Sampling rate : 48.0 KHz
Compression mode : Lossy
Stream size : 93.6 MiB (7%)
Alignment : Aligned on interleaves
Interleave, duration : 42 ms (1.00 video frame)
Interleave, preload duration : 504 ms
Audio #2
ID : 2
Format : AC-3
Format/Info : Audio Coding 3
Mode extension : CM (complete main)
Format settings, Endianness : Big
Codec ID : 2000
Duration : 1h 42mn
Bit rate mode : Constant
Bit rate : 192 Kbps
Channel(s) : 6 channels
Channel positions : Front: L C R, Side: L R, LFE
Sampling rate : 48.0 KHz
Bit depth : 16 bits
Compression mode : Lossy
Stream size : 140 MiB (10%)
Alignment : Split accross interleaves
Interleave, duration : 42 ms (1.00 video frame)
Interleave, preload duration : 500 ms


Последний раз редактировалось: Rock321123 (2012-11-03 21:57), всего редактировалось 3 раз(а)

Создавать темы 01-Ноя-2012 19:36

[Профиль]  [ЛС] 

riko777

Стаж: 5 лет 11 месяцев

Сообщений: 71

звук чистый?

Создавать темы 01-Ноя-2012 19:57

[Профиль]  [ЛС] 

Rock321123 ®

Стаж: 7 лет 2 месяца

Сообщений: 94

Симпатии: 5

Ато

Создавать темы 01-Ноя-2012 20:01

[Профиль]  [ЛС] 

oskar.uz

Стаж: 5 лет 8 месяцев

Сообщений: 42

Симпатии: 2

дайте скорости!!! и да еще проверьте быстрей админы! спасибо!

Создавать темы 01-Ноя-2012 20:17

[Профиль]  [ЛС] 

mercury

Стаж: 5 лет 5 месяцев

Сообщений: 48

Симпатии: 1

звук с TS, тебе нужно этого указать в оформлении...

Создавать темы 01-Ноя-2012 20:50

[Профиль]  [ЛС] 

Rock321123 ®

Стаж: 7 лет 2 месяца

Сообщений: 94

Симпатии: 5

никакой не тс

Создавать темы 01-Ноя-2012 22:47

[Профиль]  [ЛС] 

xek

Стаж: 6 лет 11 месяцев

Сообщений: 5

дайте скорости!!! и да еще проверьте быстрей админы! спасибо!
Да проверят модераторы данного раздела не беспокойтесь!!!

Создавать темы 02-Ноя-2012 01:27

[Профиль]  [ЛС] 

victor0778

Стаж: 6 лет 10 месяцев

Сообщений: 1670

Симпатии: 142

Rock321123, дооформил за вас, в следующий раз будет статус недооформлено

Создавать темы 02-Ноя-2012 06:49

[Профиль]  [ЛС] 

Rock321123 ®

Стаж: 7 лет 2 месяца

Сообщений: 94

Симпатии: 5

Скачайте и посмотрите звук чистый никакого шума

Создавать темы 02-Ноя-2012 10:11

[Профиль]  [ЛС] 

sem

Стаж: 7 лет 1 месяц

Сообщений: 123

Симпатии: 6

Фильм ржака!!! Спасибо...

Создавать темы 11-Ноя-2012 11:03

[Профиль]  [ЛС] 

ислом

Стаж: 5 лет 3 месяца

Сообщений: 32

Симпатии: 2

Ребята пожж дайте скорости вообще не качает

Создавать темы 17-Дек-2013 20:25

[Профиль]  [ЛС] 

lexus assasin

Стаж: 4 года 5 месяцев

Сообщений: 23

Дайте скорость 15 % осталось

Создавать темы 17-Дек-2013 20:44

[Профиль]  [ЛС] 

lexus assasin

Стаж: 4 года 5 месяцев

Сообщений: 23

Rock321123, Rock321123, скорость

Создавать темы 17-Дек-2013 20:45

[Профиль]  [ЛС] 
Показать сообщения:    
Ответить на тему

Текущее время: 16-Дек 12:15

Часовой пояс: UTC + 5



Вы не можете начинать темы
Вы не можете отвечать на сообщения
Вы не можете редактировать свои сообщения
Вы не можете удалять свои сообщения
Вы не можете голосовать в опросах
Вы не можете прикреплять файлы к сообщениям
Вы не можете скачивать файлы