Стрелок / Shooter (Антуан Фукуа) [2007 г., Боевик / Триллер / Криминал / Детектив, BDRip 720p]

Страницы :  1, 2  След.

Ответить на тему
 

Обидхон ®

Стаж: 6 лет 6 месяцев

Сообщений: 31

Стрелок / Shooter

Год выпуска: 2007
Страна: США
Жанр: Боевик / Триллер / Криминал / Детектив
Продолжительность: 02:05:42
Перевод: Профессиональный (полное дублирование) и английский
Режиссер: Антуан Фукуа
Продюссер: Лоренцо Ди Бонавентура, Эрик Хаусэм, Марк Джонсон
Сценарий: Джонатан Лемкин, Стивен Хантер
Бюджет: 61 000 000 $
Премьера в мире:8 марта 2007
В ролях: Марк Уолберг, Майкл Пенья, Дэнни Гловер, Кейт Маара, Элиас Котеас, Рона Митра, Джонатан Уолкер, Джастин Луис, Тейт Донован, Раде Шербеджия
Описание: Опытный снайпер Бобби, работающий в ФБР, оказывается втянутым в заговор с целью убийства президента. Похоже, что его хотят подставить и «сдать» властям, поэтому ему необходимо как можно быстрее найти и обезвредить настоящего убийцу…
Доп. информация:
Сборы в США 47 003 582 $
Сборы в мире + 48 693 414 $ = 95 696 996 $
Сборы в России 1 604 500 $
Качество: BDRip
Формат: MKV
Видео кодек: AVC
Аудио кодек: AC3
Видео: 1280x528 23.976fps 8 403 Kbps
Аудио 1: Dolby AC3 48000Hz 6ch 448 Kbps
Аудио 2: Dolby AC3 48000Hz 6ch 640 Kbps
Стрелок / Shooter.1080p.mkv
General
Unique ID : 254021817363667886865781097531236342794 (0xBF1AD28CA9881FCE8FA51BB1BDEADC0A)
Complete name : Стрелок / Shooter.1080p.mkv
Format : Matroska
Format version : Version 1
File size : 8.34 GiB
Duration : 2h 5mn
Overall bit rate : 9 494 Kbps
Encoded date : UTC 2007-07-18 18:29:26
Writing application : mkvmerge v2.0.2 ('You're My Flame') built on Feb 22 2007 00:05:35
Writing library : libebml v0.7.7 + libmatroska v0.8.1
Video #1
ID : 1
Format : AVC
Format/Info : Advanced Video Codec
Format profile : [email protected]
Format settings, CABAC : Yes
Format settings, ReFrames : 8 frames
Codec ID : V_MPEG4/ISO/AVC
Duration : 2h 5mn
Bit rate : 8 403 Kbps
Width : 1 280 pixels
Height : 528 pixels
Display aspect ratio : 2.40:1
Frame rate : 23.976 fps
Color space : YUV
Chroma subsampling : 4:2:0
Bit depth : 8 bits
Scan type : Progressive
Bits/(Pixel*Frame) : 0.519
Stream size : 7.22 GiB (87%)
Writing library : x264 core 55 svn-664
Encoding settings : cabac=1 / ref=5 / deblock=1:-3:-2 / analyse=0x1:0 / me=umh / subme=7 / brdo=1 / mixed_ref=1 / me_range=16 / chroma_me=1 / trellis=1 / 8x8dct=0 / cqm=0 / deadzone=21,11 / chroma_qp_offset=0 / threads=2 / nr=0 / decimate=1 / mbaff=0 / bframes=3 / b_pyramid=1 / b_adapt=1 / b_bias=0 / direct=1 / wpredb=1 / bime=1 / keyint=250 / keyint_min=25 / scenecut=40(pre) / rc=2pass / bitrate=8403 / ratetol=1.0 / rceq='blurCplx^(1-qComp)' / qcomp=0.60 / qpmin=10 / qpmax=51 / qpstep=4 / cplxblur=20.0 / qblur=0.5 / ip_ratio=1.40 / pb_ratio=1.30
Language : English
Default : Yes
Forced : No
Audio #2
ID : 2
Format : AC-3
Format/Info : Audio Coding 3
Mode extension : CM (complete main)
Codec ID : A_AC3
Duration : 2h 5mn
Bit rate mode : Constant
Bit rate : 448 Kbps
Channel(s) : 6 channels
Channel positions : Front: L C R, Side: L R, LFE
Sampling rate : 48.0 KHz
Bit depth : 16 bits
Compression mode : Lossy
Stream size : 403 MiB (5%)
Language : Russian
Default : Yes
Forced : No
Audio #3
ID : 3
Format : AC-3
Format/Info : Audio Coding 3
Mode extension : CM (complete main)
Codec ID : A_AC3
Duration : 2h 5mn
Bit rate mode : Constant
Bit rate : 640 Kbps
Channel(s) : 6 channels
Channel positions : Front: L C R, Side: L R, LFE
Sampling rate : 48.0 KHz
Bit depth : 16 bits
Compression mode : Lossy
Stream size : 576 MiB (7%)
Default : No
Forced : No

Скриншоты





Последний раз редактировалось: Обидхон (2012-11-05 19:00), всего редактировалось 9 раз(а)

Создавать темы 01-Ноя-2012 21:56

[Профиль]  [ЛС] 

Обидхон ®

Стаж: 6 лет 6 месяцев

Сообщений: 31

почему в чём проблема помогите

Создавать темы 02-Ноя-2012 20:11

[Профиль]  [ЛС] 

bokal_solutions

Стаж: 6 лет 10 месяцев

Сообщений: 69

Симпатии: 5

Ваще зор филем, сматреть нужна канкретна
Я говорю, фильм стоит посмотреть, хорошо сняли, да и сам Уолберг умеет сниматься, особенно в "Бойце"(2010) хорошо получился.

Создавать темы 02-Ноя-2012 22:32

[Профиль]  [ЛС] 

Обидхон ®

Стаж: 6 лет 6 месяцев

Сообщений: 31

почему сомнительно помогите

Создавать темы 03-Ноя-2012 16:59

[Профиль]  [ЛС] 

ziyod

Стаж: 7 лет 8 месяцев

Сообщений: 367

Симпатии: 60

Обидхон, сделайте медиаинфо.

Создавать темы 04-Ноя-2012 05:44

[Профиль]  [ЛС] 

Обидхон ®

Стаж: 6 лет 6 месяцев

Сообщений: 31

пожалуйста дайте указания

Создавать темы 04-Ноя-2012 12:00

[Профиль]  [ЛС] 

DMiTRY

Стаж: 6 лет 6 месяцев

Сообщений: 649

Симпатии: 28

пожалуйста дайте указания
медиаинфо

элементарно, если у вас Windows 7,то просто нажмите на файл (фильм) правой кнопкой,там увидите "Мediainfo" зайдёте туда,скопируйте всё от туда и внесёте в свою тему под споилер.

Создавать темы 04-Ноя-2012 16:43

[Профиль]  [ЛС] 

Обидхон ®

Стаж: 6 лет 6 месяцев

Сообщений: 31

там очень много фигней если всех скопирую не поместится в окно

Создавать темы 04-Ноя-2012 21:30

[Профиль]  [ЛС] 

DMiTRY

Стаж: 6 лет 6 месяцев

Сообщений: 649

Симпатии: 28

вся фигня берётся под споилер.

Создавать темы 04-Ноя-2012 21:33

[Профиль]  [ЛС] 

abduvalixon

Стаж: 6 лет 6 месяцев

Сообщений: 36

Симпатии: 2

медиаинфо
Стрелок / Shooter.1080p.mkv
General
Unique ID : 254021817363667886865781097531236342794 (0xBF1AD28CA9881FCE8FA51BB1BDEADC0A)
Complete name : Стрелок / Shooter.1080p.mkv
Format : Matroska
Format version : Version 1
File size : 8.34 GiB
Duration : 2h 5mn
Overall bit rate : 9 494 Kbps
Encoded date : UTC 2007-07-18 18:29:26
Writing application : mkvmerge v2.0.2 ('You're My Flame') built on Feb 22 2007 00:05:35
Writing library : libebml v0.7.7 + libmatroska v0.8.1
Video #1
ID : 1
Format : AVC
Format/Info : Advanced Video Codec
Format profile : [email protected]
Format settings, CABAC : Yes
Format settings, ReFrames : 8 frames
Codec ID : V_MPEG4/ISO/AVC
Duration : 2h 5mn
Bit rate : 8 403 Kbps
Width : 1 280 pixels
Height : 528 pixels
Display aspect ratio : 2.40:1
Frame rate : 23.976 fps
Color space : YUV
Chroma subsampling : 4:2:0
Bit depth : 8 bits
Scan type : Progressive
Bits/(Pixel*Frame) : 0.519
Stream size : 7.22 GiB (87%)
Writing library : x264 core 55 svn-664
Encoding settings : cabac=1 / ref=5 / deblock=1:-3:-2 / analyse=0x1:0 / me=umh / subme=7 / brdo=1 / mixed_ref=1 / me_range=16 / chroma_me=1 / trellis=1 / 8x8dct=0 / cqm=0 / deadzone=21,11 / chroma_qp_offset=0 / threads=2 / nr=0 / decimate=1 / mbaff=0 / bframes=3 / b_pyramid=1 / b_adapt=1 / b_bias=0 / direct=1 / wpredb=1 / bime=1 / keyint=250 / keyint_min=25 / scenecut=40(pre) / rc=2pass / bitrate=8403 / ratetol=1.0 / rceq='blurCplx^(1-qComp)' / qcomp=0.60 / qpmin=10 / qpmax=51 / qpstep=4 / cplxblur=20.0 / qblur=0.5 / ip_ratio=1.40 / pb_ratio=1.30
Language : English
Default : Yes
Forced : No
Audio #2
ID : 2
Format : AC-3
Format/Info : Audio Coding 3
Mode extension : CM (complete main)
Codec ID : A_AC3
Duration : 2h 5mn
Bit rate mode : Constant
Bit rate : 448 Kbps
Channel(s) : 6 channels
Channel positions : Front: L C R, Side: L R, LFE
Sampling rate : 48.0 KHz
Bit depth : 16 bits
Compression mode : Lossy
Stream size : 403 MiB (5%)
Language : Russian
Default : Yes
Forced : No
Audio #3
ID : 3
Format : AC-3
Format/Info : Audio Coding 3
Mode extension : CM (complete main)
Codec ID : A_AC3
Duration : 2h 5mn
Bit rate mode : Constant
Bit rate : 640 Kbps
Channel(s) : 6 channels
Channel positions : Front: L C R, Side: L R, LFE
Sampling rate : 48.0 KHz
Bit depth : 16 bits
Compression mode : Lossy
Stream size : 576 MiB (7%)
Default : No
Forced : No

Создавать темы 04-Ноя-2012 22:19

[Профиль]  [ЛС] 

Обидхон ®

Стаж: 6 лет 6 месяцев

Сообщений: 31

получится теперь или нет

Создавать темы 04-Ноя-2012 22:52

[Профиль]  [ЛС] 

DMiTRY

Стаж: 6 лет 6 месяцев

Сообщений: 649

Симпатии: 28

можете же,когда захотите. Всё верно сделано.

Создавать темы 04-Ноя-2012 22:55

[Профиль]  [ЛС] 

Обидхон ®

Стаж: 6 лет 6 месяцев

Сообщений: 31

спосибо первый раз сам заливаю

Создавать темы 04-Ноя-2012 23:16

[Профиль]  [ЛС] 

djek

Стаж: 5 лет 11 месяцев

Сообщений: 90

Симпатии: 4

давай скорость ? нет скачки ?

Создавать темы 05-Ноя-2012 13:30

[Профиль]  [ЛС] 

Обидхон ®

Стаж: 6 лет 6 месяцев

Сообщений: 31

почему опят сомнительно

Создавать темы 05-Ноя-2012 17:36

[Профиль]  [ЛС] 
Показать сообщения:    
Ответить на тему

Текущее время: 24-Ноя 05:28

Часовой пояс: UTC + 5



Вы не можете начинать темы
Вы не можете отвечать на сообщения
Вы не можете редактировать свои сообщения
Вы не можете удалять свои сообщения
Вы не можете голосовать в опросах
Вы не можете прикреплять файлы к сообщениям
Вы не можете скачивать файлы