Универсальный солдат 4 / Universal Soldier: Day of Reckoning (Джон Хайамс) [2012 г., фантастика, боевик, триллер, HDRip]

Страницы :  1, 2  След.

Ответить на тему
 

bexruz_muxsinov1 ®

Стаж: 5 лет

Сообщений: 18

Симпатии: 2

Универсальный солдат 4 / Universal Soldier: Day of Reckoning
Год выпуска: 2012
Страна: США
Жанр: фантастика, боевик, триллер
Продолжительность: 01:53:20
Перевод: Профессиональный (полное дублирование)
Режиссер: Джон Хайамс
Сценарий: Джон Хайамс, Даг Магнусон, Джон Гринхалг
Продюсер: Аллен Шапиро, Крэйг Баумгартен, Моше Дайамант
Оператор: Ярон Леви
Композитор: Майкл Красснер
Художник: Нат Джонс, Джереми Вулси, Ким Мартинез
Монтаж: Эндрю Дразек, Джон Хайамс
В ролях: Жан-Клод Ван Дамм / Jean-Claude Van Damme (Luc Deveraux), Скотт Эдкинс / Scott Adkins (John), Андрей Арловский / Andrei Arlovski (Magnus), Дольф Лундгрен / Dolph Lundgren (Andrew Scott), Кристофер Ван Варенберг / Kristopher Van Varenberg (Miles), Мария Боннер / Maria Bonner (Sarah), Джеймс Роулингс / James Rawlings (Unisol), Сигал Дайэмант / Sigal Diamant (Claudia), Остин Нолти / Austin Naulty (Unisol), Одри П. Скотт / Audrey P. Scott (Emma), Рой Джонс мл. / Roy Jones Jr. , Дэвид Дженсен / David Jensen (Dr. Su), Рас Блэквелл / Rus Blackwell (Agent Gorman), Глен Уорнер / Glen Warner (Warehouse Foreman), Дэйн Родс / Dane Rhodes (Ron Castellano), Джеймс ДюМонт / James DuMont (Dr. Timothy Brady), Джули Эриксон / Juli Erickson (Woman), Росс П. Кук / Ross P. Cook (Unisol), Мишель Джонс / Michelle Jones (Katharine), Кристофер Северио / Christopher Severio (Soldier)
Описание: Настоящее время. Программа «Unisol» по-прежнему актуальна и снова введена в эксплуатацию. Давним и непримиримым врагам времён Вьетнамской войны Эндрю Скотту и Люку Деверо суждено встретиться в очередной раз, дабы продолжить своё извечное противостояние и нескончаемую борьбу. Однако, новые опасности и трудности заставляют двух солдат на время объединиться пред лицом общей неприятности, что весьма ненадолго. Ясно одно: кровавый исход и брутальный финал неизбежен…

Бюджет: $11 500 000
Сборы в России: $580 850
Премьера (мир): 23 августа 2012
Премьера (РФ): 4 октября 2012, «Люксор» 3D
Релиз на DVD: 5 ноября 2012, «Новый Диск»
Качество: HDTVRip
Формат: AVI
Видео кодек: XviD
Аудио кодек: AC3
Видео: 720x304 (2.35:1), 23.976 fps, XviD, 1 840 Kbps
Аудио: Аудио 1: AC3, 448 Kbps, 48.0 KHz, 6 ch [Дубляж] Аудио 2: AC3, 192 Kbps, 48.0 KHz, 2 ch [Оригинал]

Скриншоты



Медиа инфо

Общее
Полное имя : \Universalnyj.so ldat.4.2012.D.HDRip.[спам].avi
Формат : AVI
Формат/Информация : Audio Video Interleave
Размер файла : 2,05 Гбайт
Продолжительность : 1 ч. 53 м.
Общий поток : 2594 Кбит/сек
Название фильма : Universalnyj.soldat.4.2012.D.VODRip.IRONCLUB
Режиссёр : IRONCLUB
Жанр : Action | Sci-Fi | Thriller
Программа кодирования : VirtualDubMod 1.5.10.2 (build 2540/release)
Формат оригинала/Имя : Movie
Видео
Идентификатор : 0
Формат : MPEG-4 Visual
Профиль формата : Advanced [email protected]
Параметр BVOP формата : 2
Параметр QPel формата : Нет
Параметр GMC формата : Без точки перехода
Параметр матрицы формата : Выборочная
Идентификатор кодека : XVID
Идентификатор кодека/Подсказка : XviD
Продолжительность : 1 ч. 53 м.
Битрейт : 1840 Кбит/сек
Ширина : 720 пикселей
Высота : 304 пикселя
Соотношение сторон : 2,35:1
Частота кадров : 23,976 кадра/сек
Цветовое пространство : YUV
Субдискретизация насыщенности : 4:2:0
Битовая глубина : 8 бит
Тип развёртки : Прогрессивная
Метод сжатия : С потерями
Бит/(Пиксели*Кадры) : 0.351
Размер потока : 1,46 Гбайт (71%)
Библиотека кодирования : XviD 1.2.1 (UTC 2008-12-04)
Аудио #1
Идентификатор : 1
Формат : AC-3
Формат/Информация : Audio Coding 3
Расширение режима : CM (complete main)
Параметр Endianness формата : Big
Идентификатор кодека : 2000
Продолжительность : 1 ч. 53 м.
Вид битрейта : Постоянный
Битрейт : 448 Кбит/сек
Каналы : 6 каналов
Расположение каналов : Front: L C R, Side: L R, LFE
Частота : 48,0 КГц
Битовая глубина : 16 бит
Метод сжатия : С потерями
Размер потока : 363 Мбайт (17%)
Выравнивание : Разделение по промежуткам
Аудио #2
Идентификатор : 2
Формат : AC-3
Формат/Информация : Audio Coding 3
Расширение режима : CM (complete main)
Параметр Endianness формата : Big
Идентификатор кодека : 2000
Продолжительность : 1 ч. 53 м.
Вид битрейта : Постоянный
Битрейт : 192 Кбит/сек
Каналы : 2 канала
Расположение каналов : Front: L R
Частота : 48,0 КГц
Битовая глубина : 16 бит
Метод сжатия : С потерями
Размер потока : 156 Мбайт (7%)
Выравнивание : Разделение по промежуткам


Последний раз редактировалось: bexruz_muxsinov1 (2012-11-03 15:11), всего редактировалось 1 раз

Создавать темы 03-Ноя-2012 11:31

[Профиль]  [ЛС] 

rbhbkk

Стаж: 4 года 11 месяцев

Сообщений: 26

спс!

Создавать темы 03-Ноя-2012 17:47

[Профиль]  [ЛС] 

Doctor-KBK

Стаж: 5 лет 6 месяцев

Сообщений: 33

дай газу!

Создавать темы 04-Ноя-2012 21:15

[Профиль]  [ЛС] 

FaBR1

Стаж: 6 лет 8 месяцев

Сообщений: 30

Спасибо за релиз.

Создавать темы 04-Ноя-2012 21:47

[Профиль]  [ЛС] 

kamoladdin

Стаж: 6 лет 5 месяцев

Сообщений: 41

Симпатии: 1

дай газу! не качается

Создавать темы 04-Ноя-2012 21:48

[Профиль]  [ЛС] 

bob

Стаж: 5 лет 9 месяцев

Сообщений: 42

фильм хороший 9/10

Создавать темы 05-Ноя-2012 18:39

[Профиль]  [ЛС] 

rbhbkk

Стаж: 4 года 11 месяцев

Сообщений: 26

дайте скорости!!!!!

Создавать темы 06-Ноя-2012 08:59

[Профиль]  [ЛС] 

Rustime

Стаж: 6 лет 3 месяца

Сообщений: 5

че за дела такие.. вообще не качает..

Создавать темы 06-Ноя-2012 20:43

[Профиль]  [ЛС] 

kamoladdin

Стаж: 6 лет 5 месяцев

Сообщений: 41

Симпатии: 1

АВТОР СТАНЬ НА РАЗДАЧУ ВОБЩЕ НЕ КАЧАЕТСЯ

Создавать темы 06-Ноя-2012 23:22

[Профиль]  [ЛС] 

doniyor_alimov

Стаж: 5 лет 7 месяцев

Сообщений: 18

bexruz_muxsinov1 ®- стань на раздачу.... я уже три часа пробую вообще не качает!!!!!

Создавать темы 07-Ноя-2012 02:17

[Профиль]  [ЛС] 

murodjon

Стаж: 6 лет 8 месяцев

Сообщений: 163

Симпатии: 10

не могу не сказать спасибо ) спасибо за фильм классно оформил

Создавать темы 09-Ноя-2012 19:52

[Профиль]  [ЛС] 

kamoladdin

Стаж: 6 лет 5 месяцев

Сообщений: 41

Симпатии: 1

дайте газу!

Создавать темы 09-Ноя-2012 20:08

[Профиль]  [ЛС] 

mr.kraus12

Стаж: 4 года 11 месяцев

Сообщений: 13

скорость плиз

Создавать темы 09-Ноя-2012 23:03

[Профиль]  [ЛС] 

mr.kraus12

Стаж: 4 года 11 месяцев

Сообщений: 13

пожалуйста выйдете на раздачу

Создавать темы 09-Ноя-2012 23:03

[Профиль]  [ЛС] 

mr.kraus12

Стаж: 4 года 11 месяцев

Сообщений: 13

ну кто нибудь народ отзовитесь плиз

Создавать темы 09-Ноя-2012 23:04

[Профиль]  [ЛС] 
Показать сообщения:    
Ответить на тему

Текущее время: 22-Окт 13:09

Часовой пояс: UTC + 5



Вы не можете начинать темы
Вы не можете отвечать на сообщения
Вы не можете редактировать свои сообщения
Вы не можете удалять свои сообщения
Вы не можете голосовать в опросах
Вы не можете прикреплять файлы к сообщениям
Вы не можете скачивать файлы