Гитлер капут! (Марюс Вайсберг) [2008 г., комедия, военный, фарс, гэг, BDRip]

Ответить на тему
 

Robot-IX ®

Стаж: 5 лет 5 месяцев

Сообщений: 223

Симпатии: 9

Гитлер капут!- Год выпуска: 2008
Страна: Россия
Жанр: комедия, военный, фарс, гэг
Продолжительность: 01:34:35
Озвучивание: Оригинал (русский)
Режиссер и Сценарист: Марюс Вайсберг
Продюсер: Сергей Ливнев, Бохдан Грачик
Оператор: Ирек Хартович
Композитор: Владимир Сайко
В ролях: Павел Деревянко, Анна Семенович, Юрий Гальцев, Юрий Стоянов, Алексей Огурцов, Эвелина Блёданс, Михаил Крылов, Илья Олейников, Алексей Булдаков, Тимати ...
Описание: Русский супер-агент — строго засекреченный шпион Шура Осечкин, он же штандартенфюрер СС Олаф Шуренберг, самоотверженно и нахально ведет подрывную деятельность в ставке Гитлера. Войне скоро конец, и это уже понятно всем, кроме фанатичного фюрера и подозрительного Мюллера. Простые труженики Рейха давно махнули на все рукой, пустились в отрыв и бесшабашно тусуются по клубам. Шуренберг скучает по дому и выращивает помидоры в тайной теплице возле своего дома на 007-Штрассе.
Очередное задание Центра сваливается на него прямо с неба — вместе с новой помощницей, очаровательной и сексапильной радисткой Зиной, мечтой каждого мужчины. С такой боевой подругой недолго и про войну забыть! Но долг превыше всего: прежде чем вернуться на Родину и зажить счастливо вместе, супер-агентам Шуренбергу и Зине предстоит провернуть одну, последнюю и очень важную операцию.
бюджет: $3 000 000
сборы в России: $9 713 500
Качество: BDRip
Формат: AVI
Видео кодек: XviD
Аудио кодек: AC3
Видео: 704x368 (1,913), 25 fps, 1675 kbps
Аудио Ru: AC3 Dolby Digital, 384.00 kbps, 48 kHz, 3/2 (L,C,R,l,r) + LFE ch,
Размер файла: 1,37

MI

Общее
Полное имя : D:\Torent\gitler_kaput.avi
Формат : AVI
Формат/Информация : Audio Video Interleave
Размер файла : 1,37 Гбайт
Продолжительность : 1 ч. 34 м.
Общий поток : 2069 Кбит/сек
Программа кодирования : VirtualDubMod 1.5.10.2 (build 2540/release)
Библиотека кодирования : VirtualDubMod build 2540/release
Видео
Идентификатор : 0
Формат : MPEG-4 Visual
Профиль формата : Advanced [email protected]
Параметр BVOP формата : 2
Параметр QPel формата : Нет
Параметр GMC формата : Без точки перехода
Параметр матрицы формата : Default (MPEG)
Режим смешивания : Сжатый битовый поток
Идентификатор кодека : XVID
Идентификатор кодека/Подсказка : XviD
Продолжительность : 1 ч. 34 м.
Битрейт : 1675 Кбит/сек
Ширина : 704 пикселя
Высота : 368 пикселей
Соотношение сторон : 1,913
Частота кадров : 25,000 кадров/сек
Цветовое пространство : YUV
Субдискретизация насыщенности : 4:2:0
Битовая глубина : 8 бит
Тип развёртки : Прогрессивная
Метод сжатия : С потерями
Бит/(Пиксели*Кадры) : 0.259
Размер потока : 1,11 Гбайт (81%)
Библиотека кодирования : XviD 1.2.0.dev47 (UTC 2006-11-01)
Аудио
Идентификатор : 1
Формат : AC-3
Формат/Информация : Audio Coding 3
Расширение режима : CM (complete main)
Параметр Endianness формата : Big
Идентификатор кодека : 2000
Продолжительность : 1 ч. 34 м.
Вид битрейта : Постоянный
Битрейт : 384 Кбит/сек
Каналы : 6 каналов
Расположение каналов : Front: L C R, Side: L R, LFE
Частота : 48,0 КГц
Битовая глубина : 16 бит
Метод сжатия : С потерями
Размер потока : 260 Мбайт (19%)
Выравнивание : Разделение по промежуткам
Продолжительность промежутка : 40 мс. (1,00 видеокадр)
Время предзагрузки промежутка : 500 мс.

Скриншоты






Последний раз редактировалось: Robot-IX (2012-11-03 15:20), всего редактировалось 1 раз

Создавать темы 03-Ноя-2012 14:56

[Профиль]  [ЛС] 

Lion31

Стаж: 6 лет 6 месяцев

Сообщений: 83

Симпатии: 2

Скорость пажалуйста ребята

Создавать темы 14-Фев-2013 18:12

[Профиль]  [ЛС] 
Показать сообщения:    
Ответить на тему

Текущее время: 24-Авг 08:13

Часовой пояс: UTC + 5



Вы не можете начинать темы
Вы не можете отвечать на сообщения
Вы не можете редактировать свои сообщения
Вы не можете удалять свои сообщения
Вы не можете голосовать в опросах
Вы не можете прикреплять файлы к сообщениям
Вы не можете скачивать файлы