Вспомнить всё / Total Recall (Лен Уайзман) [2012 г., Боевик, Приключения, Триллер, Фантастика, DVDRip]

Ответить на тему
 

Rock321123 ®

Стаж: 6 лет 10 месяцев

Сообщений: 94

Симпатии: 5

Вспомнить всё / Total Recall
Год выпуска: 2012
Страна: Канада, США
Жанр: Боевик, Приключения, Триллер, Фантастика
Продолжительность: 01:53:26
Перевод: Профессиональный (полное дублирование)
Режиссер: Лен Уайзман
В ролях: Билл Найи, Брайан Крэнстон, Букем Вудбайн, Джессика Бил, Джон Чо, Кейт Бекинсейл, Колин Фаррелл, Уилл Юн Ли, Милтон Барнс, Джеймс Макгоун
Описание: Он — обычный рабочий-строитель, живущий в маленькой квартирке в захудалом районе города будущего где-то в Новой Азии. Хотя собственная жизнь его в целом устраивает, он не может избавиться от чувства, что ему хочется чего-то большего. Потребность в новых будоражащих впечатлениях приводит его в офис компании «Вспомнить всё», имплантирующей в память своих клиентов воспоминания-фантазии, которые они могут получить не рискуя при этом пережить сами события в реальности. Пока герой выбирает, какие именно воспоминания ему приобрести, отряд спецназа штурмует комнату, где он находится, и уже было берет его под арест. К своему собственному удивлению, он молниеносно уничтожает весь отряд при помощи невероятных бойцовских навыков, о владении которыми он и не подозревал…
Качество: DVDRip
Формат: AVI
Видео кодек: Другой MPEG4
Аудио кодек: AC3
Видео: 720x304, 1 337 Kbps
Аудио: Russian: AC3, 384 kb/s (6 ch)

Скриншоты




Mediainfo

Video
ID : 0
Format : MPEG-4 Visual
Format profile : Advanced [email protected]
Format settings, BVOP : 2
Format settings, QPel : No
Format settings, GMC : No warppoints
Format settings, Matrix : Default (MPEG)
Codec ID : XVID
Codec ID/Hint : XviD
Duration : 1h 53mn
Bit rate : 1 337 Kbps
Width : 720 pixels
Height : 304 pixels
Display aspect ratio : 2.35:1
Frame rate : 25.000 fps
Color space : YUV
Chroma subsampling : 4:2:0
Bit depth : 8 bits
Scan type : Progressive
Compression mode : Lossy
Bits/(Pixel*Frame) : 0.244
Stream size : 1.06 GiB (77%)
Writing library : XviD 1.2.1 (UTC 2008-12-04)
Audio
ID : 1
Format : AC-3
Format/Info : Audio Coding 3
Mode extension : CM (complete main)
Format settings, Endianness : Big
Codec ID : 2000
Duration : 1h 53mn
Bit rate mode : Constant
Bit rate : 384 Kbps
Channel(s) : 6 channels
Channel positions : Front: L C R, Side: L R, LFE
Sampling rate : 48.0 KHz
Bit depth : 16 bits
Compression mode : Lossy
Stream size : 312 MiB (22%)
Alignment : Split accross interleaves
Interleave, duration : 40 ms (1.00 video frame)
Interleave, preload duration : 500 ms

Создавать темы 03-Ноя-2012 19:57

[Профиль]  [ЛС] 

Lion31

Стаж: 6 лет 6 месяцев

Сообщений: 83

Симпатии: 2

ребята этот Лицензия

Создавать темы 13-Фев-2013 18:51

[Профиль]  [ЛС] 
Показать сообщения:    
Ответить на тему

Текущее время: 22-Авг 06:45

Часовой пояс: UTC + 5



Вы не можете начинать темы
Вы не можете отвечать на сообщения
Вы не можете редактировать свои сообщения
Вы не можете удалять свои сообщения
Вы не можете голосовать в опросах
Вы не можете прикреплять файлы к сообщениям
Вы не можете скачивать файлы