Петля времени / Looper (Райан Джонсон) [2012 г., Боевик, Триллер, Фантастика, HDRip]

Тема закрыта
 

Rock321123 ®

Стаж: 6 лет 10 месяцев

Сообщений: 94

Симпатии: 5

Петля времени / Looper
Год выпуска: 2012
Страна: Китай, США
Жанр: Боевик, Триллер, Фантастика
Продолжительность: 01:58:48
Перевод: Профессиональный (полное дублирование)[Звук с TS]
Режиссер: Райан Джонсон
В ролях: Брюс Уиллис, Джефф Дэниелс, Джозеф Гордон-Левитт, Пайпер Перабо, Пол Дано, Трейси Томс, Эмили Блант, Ной Сеган, Пирс Гэнон, Квинг Ксу
Описание: В недалеком будущем, где стали возможны путешествия во времени, некая корпорация убирает нежелательных людей, отправляя их в прошлое в пластиковых пакетах. Задача принимающей стороны — убить жертву, стерев тем самым несчастного из истории. Все идет гладко до тех пор, пока главный герой не распаковывает очередной пакет, обнаруживая в нем… самого себя из будущего.
Качество: HDRip
Формат: AVI
Видео кодек: XviD
Аудио кодек: MP3
Видео: MPEG-4 Visual, 1948 Kbps
Аудио 1: MPEG Audio, 128 Kbps, 2 channels, 48.0 KHz
Аудио 2: AC-3, 384 Kbps, 6 channels, 44.1 KHz

Скриншоты




Mediainfo

Video
ID : 0
Format : MPEG-4 Visual
Format profile : Advanced [email protected]
Format settings, BVOP : 2
Format settings, QPel : No
Format settings, GMC : No warppoints
Format settings, Matrix : Default (MPEG)
Codec ID : XVID
Codec ID/Hint : XviD
Duration : 1h 58mn
Bit rate : 1 948 Kbps
Width : 720 pixels
Height : 304 pixels
Display aspect ratio : 2.35:1
Frame rate : 23.976 fps
Color space : YUV
Chroma subsampling : 4:2:0
Bit depth : 8 bits
Scan type : Progressive
Compression mode : Lossy
Bits/(Pixel*Frame) : 0.371
Stream size : 1.62 GiB (79%)
Writing library : XviD 1.2.1 (UTC 2008-12-04)
Audio #1
ID : 1
Format : MPEG Audio
Format version : Version 1
Format profile : Layer 3
Mode : Dual mono
Codec ID : 55
Codec ID/Hint : MP3
Duration : 1h 58mn
Bit rate mode : Constant
Bit rate : 128 Kbps
Channel(s) : 2 channels
Sampling rate : 48.0 KHz
Compression mode : Lossy
Stream size : 109 MiB (5%)
Alignment : Aligned on interleaves
Interleave, duration : 42 ms (1.00 video frame)
Interleave, preload duration : 504 ms
Audio #2
ID : 2
Format : AC-3
Format/Info : Audio Coding 3
Mode extension : CM (complete main)
Format settings, Endianness : Big
Codec ID : 2000
Duration : 1h 58mn
Bit rate mode : Constant
Bit rate : 384 Kbps
Channel(s) : 6 channels
Channel positions : Front: L C R, Side: L R, LFE
Sampling rate : 44.1 KHz
Bit depth : 16 bits
Compression mode : Lossy
Stream size : 326 MiB (16%)
Alignment : Split accross interleaves
Interleave, duration : 42 ms (1.00 video frame)
Interleave, preload duration : 500 ms


Последний раз редактировалось: Rock321123 (2012-11-04 06:35), всего редактировалось 3 раз(а)

Создавать темы 03-Ноя-2012 20:21

[Профиль]  [ЛС] 

azat

Стаж: 6 лет 2 месяца

Сообщений: 75

Озвучивание Дублированное [звук с TS]

Создавать темы 03-Ноя-2012 20:40

[Профиль]  [ЛС] 

Anvar29

Стаж: 7 лет

Сообщений: 94

Симпатии: 5

Звук ТС или не ТС ?

Создавать темы 03-Ноя-2012 21:08

[Профиль]  [ЛС] 

Rock321123 ®

Стаж: 6 лет 10 месяцев

Сообщений: 94

Симпатии: 5

Звук отличный отвечаю

Создавать темы 03-Ноя-2012 21:14

[Профиль]  [ЛС] 

Robot-IX

Стаж: 5 лет 4 месяца

Сообщений: 223

Симпатии: 9

Rock321123, ay
жаль звукс ТС и не HD ))
может качну, а так буду ждать...!

Создавать темы 03-Ноя-2012 22:01

[Профиль]  [ЛС] 

Rock321123 ®

Стаж: 6 лет 10 месяцев

Сообщений: 94

Симпатии: 5

нормальный звук!!!!

Создавать темы 03-Ноя-2012 22:57

[Профиль]  [ЛС] 

Tolik4523

Стаж: 5 лет 7 месяцев

Сообщений: 271

Симпатии: 27

В сидах один и тот же ник в количестве 9-ти, да и другие не по одному.

Создавать темы 05-Ноя-2012 03:53

[Профиль]  [ЛС] 

Arsen-1993

Стаж: 4 года 10 месяцев

Сообщений: 18

Симпатии: 1

В сидах один и тот же ник в количестве 9-ти, да и другие не по одному.
Это из-за провайдера Uzonline, одинаковые IP адреса у пользователей...это уже месяц так...

Создавать темы 11-Ноя-2012 23:20

[Профиль]  [ЛС] 

cona

Стаж: 5 лет 2 месяца

Сообщений: 11

Фильм зачетный! Главное порадовало то ,что это не очередной нарисованный кислотный полумультик. Под отсутствием спецефектов видна настальгия создателей по боевикам 80-90 здесь и "Патруль времени", и "Терминатор", и "Выхода нет". Правдо есть небольшие ляпы в сценарии ,как например китаянка которую без особых проблем и последствий мочат хотя по заверению авторов в будущем никого нереально убить... хотя может я слегка и предираюсь))))

Создавать темы 12-Ноя-2012 19:44

[Профиль]  [ЛС] 

Mixer City

Стаж: 6 лет 7 месяцев

Сообщений: 754

Симпатии: 63

Петля времени / Looper (Райан Джонсон / Rian Johnson) [2012 г., Фантастика, боевик, триллер, DVDRip]

Создавать темы 15-Ноя-2012 15:48

[Профиль]  [ЛС] 
Показать сообщения:    
Тема закрыта

Текущее время: 21-Авг 04:10

Часовой пояс: UTC + 5



Вы не можете начинать темы
Вы не можете отвечать на сообщения
Вы не можете редактировать свои сообщения
Вы не можете удалять свои сообщения
Вы не можете голосовать в опросах
Вы не можете прикреплять файлы к сообщениям
Вы не можете скачивать файлы