Ловля карпов поздней осенью (Алексей Фадеев) [2011, Рыбалка, WEBRip, RUS] (Видеоурок)

Ответить на тему
 

rob ®

Стаж: 5 лет

Сообщений: 34

Симпатии: 5

Ловля карпов поздней осенью (Алексей Фадеев)
Страна: Россия
Тематика: Рыбалка
Тип раздаваемого материала: Видеоурок
Режиссер / автор / актер: Алексей Фадеев
Продолжительность: 38mn 18s 983ms
Год выпуска: 2011
Язык: Русский
Перевод: Не требуется
Язык субтитров: нет
Описание: В этом небольшом фильме Алексей Фадеев очень доступно расскажет, как нужно ловить карпа поздней осенью в конце октября и ноябрь. Многие рыболовы на фидер сталкиваются с проблемой, что в это время у них ничего не клюет. Однако ловля карпа осенью не такая уж и невыполнимая задача. Нужно всего лишь правильно подобрать прикормку, найти хорошую точку лова и можно с успехом ловить карпа...
Алексей Фадеев является призером многих турниров по фидерной ловле, проводимых в России и за ее пределами. Своими главными победами считает два вице-чемпионских титула 2007—2008 гг. на чемпионатах Москвы в личном зачете. Командное золото на том же чемпионате Москвы в 2008 г. В 2009 году ему удалось встать на вершину пьедестала на очень престижном кубке «Алгоритм», победить в котором он мечтал целых три года.

Mediainfo

Format : MPEG-4
Format profile : Base Media
Codec ID : isom
File size : 165 MiB
Duration : 38mn 18s
Overall bit rate mode : Variable
Overall bit rate : 601 Kbps
Encoded date : UTC 2012-10-12 16:33:19
Tagged date : UTC 2012-10-12 16:33:19
Video
ID : 1
Format : AVC
Format/Info : Advanced Video Codec
Format profile : [email protected]
Format settings, CABAC : Yes
Format settings, ReFrames : 5 frames
Codec ID : avc1
Codec ID/Info : Advanced Video Coding
Duration : 38mn 18s
Bit rate : 501 Kbps
Maximum bit rate : 1 500 Kbps
Width : 640 pixels
Height : 480 pixels
Display aspect ratio : 4:3
Frame rate mode : Constant
Frame rate : 25.000 fps
Color space : YUV
Chroma subsampling : 4:2:0
Bit depth : 8 bits
Scan type : Progressive
Bits/(Pixel*Frame) : 0.065
Stream size : 137 MiB (83%)
Writing library : x264 core 119 r2106 07efeb4
Encoding settings : cabac=1 / ref=5 / deblock=1:-1:-1 / analyse=0x3:0x133 / me=umh / subme=7 / psy=1 / psy_rd=1.00:0.00 / mixed_ref=1 / me_range=16 / chroma_me=1 / trellis=2 / 8x8dct=1 / cqm=0 / deadzone=21,11 / fast_pskip=0 / chroma_qp_offset=-2 / threads=3 / sliced_threads=0 / nr=0 / decimate=1 / interlaced=0 / bluray_compat=0 / constrained_intra=0 / bframes=3 / b_pyramid=2 / b_adapt=2 / b_bias=0 / direct=1 / weightb=1 / open_gop=0 / weightp=2 / keyint=250 / keyint_min=25 / scenecut=40 / intra_refresh=0 / rc_lookahead=50 / rc=crf / mbtree=1 / crf=23.0 / qcomp=0.60 / qpmin=0 / qpmax=69 / qpstep=4 / ip_ratio=1.40 / aq=1:1.00
Encoded date : UTC 2012-10-12 16:33:19
Tagged date : UTC 2012-10-12 16:33:26
Audio
ID : 2
Format : AAC
Format/Info : Advanced Audio Codec
Format profile : LC
Codec ID : 40
Duration : 38mn 18s
Bit rate mode : Variable
Bit rate : 96.0 Kbps
Maximum bit rate : 106 Kbps
Channel(s) : 2 channels
Channel positions : Front: L R
Sampling rate : 44.1 KHz
Compression mode : Lossy
Stream size : 26.3 MiB (16%)
Encoded date : UTC 2012-10-12 16:33:25
Tagged date : UTC 2012-10-12 16:33:26
Качество: WEBRip
Формат: MP4
Видео кодек: H.264
Аудио кодек: AAC
Видео: AVC VBR at 501 Kbps 640 x 480 (1.333) at 25.000 fps
Аудио: AAC VBR at 96.0 Kbps 2 channels, 44.1 KHz

Скриншоты



Создавать темы 03-Ноя-2012 20:55

[Профиль]  [ЛС] 
Показать сообщения:    
Ответить на тему

Текущее время: 26-Сен 12:28

Часовой пояс: UTC + 5



Вы не можете начинать темы
Вы не можете отвечать на сообщения
Вы не можете редактировать свои сообщения
Вы не можете удалять свои сообщения
Вы не можете голосовать в опросах
Вы не можете прикреплять файлы к сообщениям
Вы не можете скачивать файлы