Месть и Закон / Sholay (Рамеш Сиппи) [1975 г., Комедия, Триллер, Боевик, Приключения, Мелодрама,, DVDRip]

Ответить на тему
 

Обидхон ®

Стаж: 6 лет 6 месяцев

Сообщений: 31

Месть и Закон / Sholay
Год выпуска: 1975
Страна: Индия
Жанр: Комедия, Триллер, Боевик, Приключения, Мелодрама,
Продолжительность: 02:19:07
Перевод: профессиональный (полное дублирование)- к/с им. довженко
Режиссер: Рамеш Сиппи
В ролях: Дхармендра, Амитабх Баччан, Хема Малини, Амджад Кхан, Санджив Кумар, Джая Бхадури, А.К. Хангал, Ифтекхар, Лила Мишра, Кешто Буккерджи
Описание: Полицейскому управлению удалось напасть на след банды и схватить самого главаря - Габбар Синха. Но ни в одной камере нет таких стен,
которые могли бы удержать его. Преступник бежит из тюрьмы и жестоко расправляется с семьей инспектора полиции.
Чтобы отомстить кровавому насильнику и защитить мирную деревню от банды разбойников,
инспектор Тхакур нанимает двоих смельчаков. У него свой счет к главарю банды
Качество: DVDRip
Формат: MKV
Видео кодек: x264
Аудио кодек: AC3
Видео: 720x304, 25fps, 2675 Kbps
Аудио: Dolby AC3, 48000Hz, stereo, 448 Kbps
Format : Matroska
Format version : Version 2
File size : 3.10 GiB
Duration : 2h 19mn
Overall bit rate : 3 187 Kbps
Writing application : XviD4PSP 6.0 / 53.6.0
Writing library : XviD4PSP 6.0 / 53.6.0
Video
ID : 1
Format : AVC
Format/Info : Advanced Video Codec
Format profile : [email protected]
Format settings, CABAC : Yes
Format settings, ReFrames : 3 frames
Codec ID : V_MPEG4/ISO/AVC
Duration : 2h 19mn
Bit rate : 2 675 Kbps
Width : 720 pixels
Height : 304 pixels
Display aspect ratio : 2.40:1
Frame rate mode : Constant
Frame rate : 25.000 fps
Color space : YUV
Chroma subsampling : 4:2:0
Bit depth : 8 bits
Scan type : Progressive
Bits/(Pixel*Frame) : 0.489
Stream size : 2.60 GiB (84%)
Writing library : x264 core 116 r2019M 9cc407d
Encoding settings : cabac=1 / ref=3 / deblock=1:-1:-1 / analyse=0x3:0x133 / me=tesa / subme=10 / psy=1 / psy_rd=1.00:0.15 / mixed_ref=1 / me_range=16 / chroma_me=1 / trellis=2 / 8x8dct=1 / cqm=0 / deadzone=21,11 / fast_pskip=1 / chroma_qp_offset=-3 / threads=8 / sliced_threads=0 / nr=0 / decimate=1 / interlaced=0 / bluray_compat=0 / constrained_intra=0 / bframes=3 / b_pyramid=1 / b_adapt=2 / b_bias=0 / direct=3 / weightb=1 / open_gop=0 / weightp=2 / keyint=250 / keyint_min=25 / scenecut=40 / intra_refresh=0 / rc_lookahead=40 / rc=crf / mbtree=1 / crf=20.0 / qcomp=0.60 / qpmin=10 / qpmax=51 / qpstep=4 / ip_ratio=1.40 / aq=1:1.00
Default : Yes
Forced : No
Audio
ID : 2
Format : AC-3
Format/Info : Audio Coding 3
Mode extension : CM (complete main)
Format settings, Endianness : Big
Codec ID : A_AC3
Duration : 2h 19mn
Bit rate mode : Constant
Bit rate : 448 Kbps
Channel(s) : 2 channels
Channel positions : Front: L R
Sampling rate : 48.0 KHz
Bit depth : 16 bits
Compression mode : Lossy
Stream size : 446 MiB (14%)
Default : Yes
Forced : No

Скриншоты





Последний раз редактировалось: Обидхон (2012-11-05 23:42), всего редактировалось 2 раз(а)

Создавать темы 05-Ноя-2012 19:42

[Профиль]  [ЛС] 

victor0778

Стаж: 6 лет 9 месяцев

Сообщений: 1670

Симпатии: 142

Обидхон, добавьте лог медиа инфо

Создавать темы 05-Ноя-2012 20:11

[Профиль]  [ЛС] 

dimaneg70

Стаж: 5 лет 10 месяцев

Сообщений: 9

А можно начать раздачу?

Создавать темы 10-Ноя-2012 21:15

[Профиль]  [ЛС] 

Scar

Стаж: 5 лет 8 месяцев

Сообщений: 17

да где раздача ?

Создавать темы 13-Мар-2013 22:43

[Профиль]  [ЛС] 

ramis1972

Стаж: 5 лет 1 месяц

Сообщений: 9

Пожалуйста не уходите с раздачи!!!!! Скорость можно увеличить!
Два дня тупо стоит 36%.((((((

Создавать темы 16-Янв-2014 13:09

[Профиль]  [ЛС] 

ramis1972

Стаж: 5 лет 1 месяц

Сообщений: 9

Раздавать будете или нет! Лучше уберите фильм с раздачи, чем нервировать людей!!!!!!

Создавать темы 21-Янв-2014 16:18

[Профиль]  [ЛС] 

farik9193

Стаж: 5 лет

Сообщений: 501

Симпатии: 47

Народ дайте нормально скачать вернитес на раздачу а

Создавать темы 21-Мар-2014 12:38

[Профиль]  [ЛС] 
Показать сообщения:    
Ответить на тему

Текущее время: 19-Ноя 10:08

Часовой пояс: UTC + 5



Вы не можете начинать темы
Вы не можете отвечать на сообщения
Вы не можете редактировать свои сообщения
Вы не можете удалять свои сообщения
Вы не можете голосовать в опросах
Вы не можете прикреплять файлы к сообщениям
Вы не можете скачивать файлы