Противостояние / The One (Джеймс Вонг / James Wong) [2001 г., фантастика, боевик, триллер, BDRip-AVC] Dub + MVO + Original eng + Subs (Rus, Eng)

Ответить на тему
 

Robot-IX ®

Стаж: 5 лет 5 месяцев

Сообщений: 223

Симпатии: 9

Противостояние / The One
«In order to save the universe, he will have to fight the fiercest enemy he has ever faced...himself.»
-Год выпуска: 2001
Выпущено: США / Revolution Studios
Жанр: фантастика, боевик, триллер
Продолжительность: 01:27:18
Перевод: Дублированный + Профессиональный (многоголосый) + Английский (оригинал) + Комментарии (оригинал)
Режиссер: Джеймс Вонг / James Wong
В ролях: Джет Ли, Джейсон Стэтхэм, Карла Гуджино, Делрой Линдо, Джеймс Моррисон, Дилан Бруно, Ричард Стейнметц, Стив Рэнкин, Таккер Смоллвуд, Харриет Сэнсом Харрис, Дин Норрис, Рон Зиммерман-Сюжет: Что делать, если твой мир рушится, когда в него вторгается безжалостный пришелец из параллельных миров? Стремясь стать сверхчеловеком, агент Межпространственного Бюро Расследований Габриель Юло совершает головокружительное сафари по параллельным мирам, охотясь за своими двойниками.
Силы его растут с каждой новой жертвой, их жизненная энергия аккумулируется в нем, наделяя его невероятными способностями. Никто не знает, что случится с хрупким равновесием вселенных, если Габриель достигнет своей цели — уничтожить всех двойников. Его мечта уже почти становится реальностью, когда на пути Юло становится Гэйб — полицейский из Лос-Анджелеса…-IMDB // КиноПоиск // Награды-Качество видео: BDRip-AVC
Формат: MKV
Видео кодек: H.264
Аудио кодек: AC3
Видео: H.264, 1032 x 430, 23.976 fps, ~3373 Кбит/с
Аудио #1: AC3, 448 Кбит/с, 48 kHz (6 ch) Russian / Дубляж
Аудио #2: AC3, 448 Кбит/с, 48 kHz (6 ch) Russian / Многоголосый
Аудио #3: AC3, 448 Кбит/с, 48 kHz (6 ch) English
Аудио #4: AC3, 192 Кбит/с, 48 kHz (2 ch) English / Commentary
Cубтитры: Русские (3 вида), Английские (+ SDH)
Навигация: 16 англоязычных глав
-

MI

Общее
Уникальный идентификатор : 244748413055231074688435144868229065337 (0xB820D46AC95779D8AF5516DB56A0AA79)
Полное имя : D:\Torent\Protivostoyanie.2001.BDRip-AVC.mkv
Формат : Matroska
Версия формата : Version 2
Размер файла : 2,99 Гбайт
Продолжительность : 1 ч. 27 м.
Общий поток : 4909 Кбит/сек
Название фильма : The One 2001
Дата кодирования : UTC 2012-11-05 19:19:04
Программа кодирования : mkvmerge v5.8.0 ('No Sleep / Pillow') built on Sep 2 2012 15:37:04
Библиотека кодирования : libebml v1.2.3 + libmatroska v1.3.0
Attachment : Yes
Видео
Идентификатор : 1
Формат : AVC
Формат/Информация : Advanced Video Codec
Профиль формата : High@L4.0
Параметр CABAC формата : Да
Параметр ReFrames формата : 11 кадров
Режим смешивания : Header stripping
Идентификатор кодека : V_MPEG4/ISO/AVC
Продолжительность : 1 ч. 27 м.
Битрейт : 3276 Кбит/сек
Ширина : 1032 пикселя
Высота : 430 пикселей
Соотношение сторон : 2,40:1
Частота кадров : 23,976 кадра/сек
Цветовое пространство : YUV
Субдискретизация насыщенности : 4:2:0
Битовая глубина : 8 бит
Тип развёртки : Прогрессивная
Бит/(Пиксели*Кадры) : 0.308
Размер потока : 2,00 Гбайт (67%)
Заголовок : The One
Библиотека кодирования : x264 core 115 r2008 4c552d8
Настройки программы : cabac=1 / ref=11 / deblock=1:-2:-1 / analyse=0x3:0x133 / me=umh / subme=10 / psy=1 / psy_rd=1.10:0.05 / mixed_ref=1 / me_range=32 / chroma_me=1 / trellis=2 / 8x8dct=1 / cqm=0 / deadzone=21,11 / fast_pskip=0 / chroma_qp_offset=-3 / threads=6 / sliced_threads=0 / nr=0 / decimate=1 / interlaced=0 / bluray_compat=0 / constrained_intra=0 / bframes=15 / b_pyramid=2 / b_adapt=2 / b_bias=0 / direct=3 / weightb=1 / open_gop=0 / weightp=2 / keyint=250 / keyint_min=23 / scenecut=40 / intra_refresh=0 / rc_lookahead=60 / rc=crf / mbtree=0 / crf=18.4 / qcomp=0.65 / qpmin=0 / qpmax=69 / qpstep=4 / vbv_maxrate=25000 / vbv_bufsize=31250 / crf_max=0.0 / nal_hrd=none / ip_ratio=1.40 / pb_ratio=1.30 / aq=1:0.90 / zones=116050,125592,q=30,psy-rd=1.0:0.0
Язык : English
Default : Да
Forced : Нет
Аудио #1
Идентификатор : 2
Формат : AC-3
Формат/Информация : Audio Coding 3
Расширение режима : CM (complete main)
Параметр Endianness формата : Big
Режим смешивания : Header stripping
Идентификатор кодека : A_AC3
Продолжительность : 1 ч. 27 м.
Вид битрейта : Постоянный
Битрейт : 448 Кбит/сек
Каналы : 6 каналов
Расположение каналов : Front: L C R, Side: L R, LFE
Частота : 48,0 КГц
Битовая глубина : 16 бит
Метод сжатия : С потерями
Размер потока : 280 Мбайт (9%)
Заголовок : Дубляж
Язык : Russian
Default : Да
Forced : Нет
Аудио #2
Идентификатор : 3
Формат : AC-3
Формат/Информация : Audio Coding 3
Расширение режима : CM (complete main)
Параметр Endianness формата : Big
Режим смешивания : Header stripping
Идентификатор кодека : A_AC3
Продолжительность : 1 ч. 27 м.
Вид битрейта : Постоянный
Битрейт : 448 Кбит/сек
Каналы : 6 каналов
Расположение каналов : Front: L C R, Side: L R, LFE
Частота : 48,0 КГц
Битовая глубина : 16 бит
Метод сжатия : С потерями
Размер потока : 280 Мбайт (9%)
Заголовок : Многоголосый
Язык : Russian
Default : Нет
Forced : Нет
Аудио #3
Идентификатор : 4
Формат : AC-3
Формат/Информация : Audio Coding 3
Расширение режима : CM (complete main)
Параметр Endianness формата : Big
Режим смешивания : Header stripping
Идентификатор кодека : A_AC3
Продолжительность : 1 ч. 27 м.
Вид битрейта : Постоянный
Битрейт : 448 Кбит/сек
Каналы : 6 каналов
Расположение каналов : Front: L C R, Side: L R, LFE
Частота : 48,0 КГц
Битовая глубина : 16 бит
Метод сжатия : С потерями
Размер потока : 280 Мбайт (9%)
Заголовок : Английский
Язык : English
Default : Нет
Forced : Нет
Аудио #4
Идентификатор : 5
Формат : AC-3
Формат/Информация : Audio Coding 3
Расширение режима : CM (complete main)
Параметр Endianness формата : Big
Режим смешивания : Header stripping
Идентификатор кодека : A_AC3
Продолжительность : 1 ч. 27 м.
Вид битрейта : Постоянный
Битрейт : 192 Кбит/сек
Каналы : 2 канала
Расположение каналов : Front: L R
Частота : 48,0 КГц
Битовая глубина : 16 бит
Метод сжатия : С потерями
Размер потока : 120 Мбайт (4%)
Заголовок : комент. реж. Английский
Язык : English
Default : Нет
Forced : Нет
Текст #1
Идентификатор : 6
Формат : UTF-8
Идентификатор кодека : S_TEXT/UTF8
Идентификатор кодека/Информация : UTF-8 Plain Text
Заголовок : Русские №1
Язык : Russian
Default : Нет
Forced : Нет
Текст #2
Идентификатор : 7
Формат : UTF-8
Идентификатор кодека : S_TEXT/UTF8
Идентификатор кодека/Информация : UTF-8 Plain Text
Заголовок : Русские №2
Язык : Russian
Default : Нет
Forced : Нет
Текст #3
Идентификатор : 8
Формат : UTF-8
Идентификатор кодека : S_TEXT/UTF8
Идентификатор кодека/Информация : UTF-8 Plain Text
Заголовок : Русские №3
Язык : Russian
Default : Нет
Forced : Нет
Текст #4
Идентификатор : 9
Формат : UTF-8
Идентификатор кодека : S_TEXT/UTF8
Идентификатор кодека/Информация : UTF-8 Plain Text
Заголовок : Английские
Язык : English
Default : Нет
Forced : Нет
Текст #5
Идентификатор : 10
Формат : UTF-8
Идентификатор кодека : S_TEXT/UTF8
Идентификатор кодека/Информация : UTF-8 Plain Text
Заголовок : Английские - SDH
Язык : English
Default : Нет
Forced : Нет
Меню
00:00:00.000 : en:Start
00:04:14.587 : en:Lawless
00:08:28.591 : en:Through The Wormhole
00:14:19.108 : en:Rotten Ronnie
00:18:58.804 : en:Vented Rage
00:24:36.141 : en:He was me
00:32:51.177 : en:Attack
00:38:36.272 : en:New Procedure
00:45:15.379 : en:Some People Never Learn
00:49:59.830 : en:A Little Privacy
00:55:28.074 : en:Take Cover
00:58:35.845 : en:Yulaw VS
01:03:10.620 : en:Them All
01:06:21.227 : en:The Sentence
01:13:26.110 : en:The decision
01:17:42.741 : en:End

Скриншоты




Создавать темы 06-Ноя-2012 00:57

[Профиль]  [ЛС] 

oskar.uz

Стаж: 5 лет 4 месяца

Сообщений: 42

Симпатии: 2

Спасибо автору! хорошая картина! НО автор дай Скорости!!!

Создавать темы 06-Ноя-2012 10:04

[Профиль]  [ЛС] 

Mehti

Стаж: 5 лет 3 месяца

Сообщений: 140

Симпатии: 17

Фильм ништяк давно искал!!!
Автор дай Скорости!!!

Создавать темы 06-Ноя-2012 12:54

[Профиль]  [ЛС] 

Robot-IX ®

Стаж: 5 лет 5 месяцев

Сообщений: 223

Симпатии: 9

ну и что Вы у меня просите? если с нетом пробл..

Создавать темы 06-Ноя-2012 22:40

[Профиль]  [ЛС] 

AligarH

Стаж: 5 лет 7 месяцев

Сообщений: 31

дайте скачат

Создавать темы 07-Ноя-2012 17:29

[Профиль]  [ЛС] 

ForJ

Стаж: 4 года 2 месяца

Сообщений: 56

Может кто нибудь на раздачу встать или зарелизить? Давно хотел пересмотреть фильм

Создавать темы 27-Мар-2014 16:15

[Профиль]  [ЛС] 

FartMen

Стаж: 5 лет 5 месяцев

Сообщений: 30

Симпатии: 2

много фильмов было снято в начале нулевых под впечатлением матрицы

Создавать темы 28-Сен-2014 21:34

[Профиль]  [ЛС] 

ta9987

Стаж: 5 лет 6 месяцев

Сообщений: 1

а формат нормальный

Создавать темы 28-Май-2016 21:44

[Профиль]  [ЛС] 
Показать сообщения:    
Ответить на тему

Текущее время: 24-Авг 15:46

Часовой пояс: UTC + 5



Вы не можете начинать темы
Вы не можете отвечать на сообщения
Вы не можете редактировать свои сообщения
Вы не можете удалять свои сообщения
Вы не можете голосовать в опросах
Вы не можете прикреплять файлы к сообщениям
Вы не можете скачивать файлы