Насреддин в Бухаре (Яков Протазанов) [1943 г., мелодрама, комедия, история, TVRip]

Ответить на тему
 

boss-aka ®

Стаж: 6 лет 5 месяцев

Сообщений: 17

Симпатии: 3

Насреддин в Бухаре
Год выпуска: 1943
Жанр: мелодрама, комедия, история
Продолжительность: 01:20:48
Режиссер: Яков Протазанов
В ролях: Лев Свердлин
М. Мирзакаримова
Эммануил Геллер
Василий Зайчиков
Степан Каюков
Матвей Ляров
Николай Волков
А. Талипов
Асад Исматов
Иван Бобров
Описание: Комедия по роману Л. Соловьева «Возмутитель спокойствия». Благодаря находчивости и выдумке неугомонного весельчака Ходжи Насреддина многим угнетенным и обездоленным удается противостоять жестокому эмиру Бухары.
Доп. информация: сценарий Виктор Виткович, Леонид Соловьев
директор фильма Дж. Дэнисон
оператор Даниил Демуцкий
композитор Борис Арапов, Мухтар Ашрафи
художник Варшам Еремян
Качество: TVRip
Формат: AVI
Видео кодек: XviD
Аудио кодек: MPEG Audio
Видео: MPEG-4 Visual,XVID,640 x 360 (4:3),679 Kbps
Аудио: MPEG Audio,44.1 KHz,2 channels,128 Kbps
Имя файла: Насреддин в Бухаре.avi
Формат файла: .avi (AVI)
Размер файла: 473.59 MB
Длительность: 1h 20mn
Навигация по главам: Нет
Bitrate (все потоки): 819 Kbps
...при помощи: MEncoder SVN-r30881(20100311-gcc4.3.3)
...с использованием: MPlayer
Название: Насреддин в Бухаре
Тип потока: Видео
Длительность: 01:20:48
Кодек: MPEG-4 Visual
Кодек/Профиль: Advanced [email protected]
Кодек/ID: XVID
Размеры изображения: 640 x 360 (4:3)
Частота кадров: 25.000 fps
Размер потока: 393 MiB (83%)
Битрейт: 679 Kbps
Библиотека кодирования: XviD 1.2.1 (UTC 2008-12-04)
Цветовое пространство: YUV
Тип развёртки: Progressive
Глубина: 8 bits
Тип потока: Звук #1
Длительность: 01:20:48.065
Кодек: MPEG Audio
Кодек/Профиль: Layer 3
Кодек/ID: 55
Частота дискретизации: 44.1 KHz
Каналов: 2 channels
Битрейт: 128 Kbps
Битрейт/тип: Constant
Размер потока: 74.0 MiB (16%)
Метод сжатия: Lossy

Скриншоты





Последний раз редактировалось: boss-aka (2012-11-08 20:53), всего редактировалось 2 раз(а)

Создавать темы 08-Ноя-2012 03:04

[Профиль]  [ЛС] 

victor0778

Стаж: 6 лет 9 месяцев

Сообщений: 1670

Симпатии: 142

boss-aka, скриншоты по размерам поправьте и лог медиа инфо выложите

Создавать темы 08-Ноя-2012 18:39

[Профиль]  [ЛС] 

BenzZzinE

Стаж: 6 лет 11 месяцев

Сообщений: 30

Симпатии: 7

раздача есть вобще?

Создавать темы 22-Янв-2013 16:35

[Профиль]  [ЛС] 

mansa_19

Стаж: 5 лет

Сообщений: 24

Симпатии: 4

ребят дайте скорости пожалуйста, за ранее спасибо!

Создавать темы 28-Янв-2013 19:05

[Профиль]  [ЛС] 

Gulyamoff

Стаж: 4 года 9 месяцев

Сообщений: 18

Раздача будет? Ждать??

Создавать темы 14-Фев-2013 17:44

[Профиль]  [ЛС] 

Gulyamoff

Стаж: 4 года 9 месяцев

Сообщений: 18

Раздачу ждать или нет?

Создавать темы 15-Фев-2013 17:02

[Профиль]  [ЛС] 
Показать сообщения:    
Ответить на тему

Текущее время: 18-Ноя 19:06

Часовой пояс: UTC + 5



Вы не можете начинать темы
Вы не можете отвечать на сообщения
Вы не можете редактировать свои сообщения
Вы не можете удалять свои сообщения
Вы не можете голосовать в опросах
Вы не можете прикреплять файлы к сообщениям
Вы не можете скачивать файлы