Похождения Насреддина (Наби Ганиев) [1946 г., комедия, SATRip]

Ответить на тему
 

boss-aka ®

Стаж: 6 лет 4 месяца

Сообщений: 17

Симпатии: 3

Похождения Насреддина
Год выпуска: 1946
Жанр: комедия
Продолжительность: 01:13:23
Режиссер: Наби Ганиев
В ролях: Раззак Хамраев
Хайла Ганиева
Юлдуз Ризаева
Рахим Пирмухамедов
Кабил Халиков
Абуд Джалилов
Сейфи Алимов
Саат Талипов
Владимир Б
Описание: Фильм рассказывает о приключениях героя восточных легенд Ходжы Насреддина, защитника угнетенных и обездоленных.
Доп. информация: сценарий Виктор Виткович
директор фильма Михаил Ишевский
оператор Даниил Демуцкий
композитор Алексей Козловский
художник Варшам Еремян
Качество: SATRip
Формат: AVI
Видео кодек: XviD
Аудио кодек: MPEG Audio
Видео: MPEG-4 Visual,XVID,427 x 240 (4:3),487 Kbps
Аудио: MPEG Audio,44.1 KHz,2 channels,128 Kbps
Имя файла: ПОХОЖДЕНИЯ НАСРЕДДИНА.avi
Формат файла: .avi (AVI)
Размер файла: 329.01 MB
Длительность: 1h 13mn
Навигация по главам: Нет
Bitrate (все потоки): 627 Kbps
...при помощи: MEncoder SVN-r30881(20100311-gcc4.3.3)
...с использованием: MPlayer
Название: ПОХОЖДЕНИЯ НАСРЕДДИНА
Тип потока: Видео
Длительность: 01:13:23
Кодек: MPEG-4 Visual
Кодек/Профиль: Advanced [email protected]
Кодек/ID: XVID
Размеры изображения: 427 x 240 (4:3)
Частота кадров: 25.000 fps
Размер потока: 255 MiB (78%)
Битрейт: 487 Kbps
Библиотека кодирования: XviD 1.2.1 (UTC 2008-12-04)
Цветовое пространство: YUV
Тип развёртки: Progressive
Глубина: 8 bits
Тип потока: Звук #1
Длительность: 01:13:23.200
Кодек: MPEG Audio
Кодек/Профиль: Layer 3
Кодек/ID: 55
Частота дискретизации: 44.1 KHz
Каналов: 2 channels
Битрейт: 128 Kbps
Битрейт/тип: Constant
Размер потока: 67.2 MiB (20%)
Метод сжатия: Lossy
Программа: LAME3.98

Скриншоты






Последний раз редактировалось: boss-aka (2012-11-08 20:39), всего редактировалось 1 раз

Создавать темы 08-Ноя-2012 03:23

[Профиль]  [ЛС] 

victor0778

Стаж: 6 лет 8 месяцев

Сообщений: 1670

Симпатии: 142

boss-aka, скриншоты по размерам поправьте и лог медиа инфо выложите

Создавать темы 08-Ноя-2012 18:41

[Профиль]  [ЛС] 

Nijelmannn

Стаж: 5 лет

Сообщений: 151

Симпатии: 1

Скорости нет

Создавать темы 09-Ноя-2012 18:17

[Профиль]  [ЛС] 

Hasanbek

Стаж: 6 лет 5 месяцев

Сообщений: 161

Симпатии: 6

а перевод какой?

Создавать темы 25-Ноя-2012 10:11

[Профиль]  [ЛС] 

miwa

Стаж: 5 лет

Сообщений: 8

а не подскажите фильм на каком языке на узб или рус? Заранее спасибо!!!!

Создавать темы 01-Дек-2012 23:29

[Профиль]  [ЛС] 

Arnold

Стаж: 6 лет 6 месяцев

Сообщений: 149

Симпатии: 5

а не подскажите фильм на каком языке на узб или рус? Заранее спасибо!!!!
русский

Создавать темы 10-Дек-2012 17:38

[Профиль]  [ЛС] 

BenzZzinE

Стаж: 6 лет 10 месяцев

Сообщений: 30

Симпатии: 7

раздача есть или как?

Создавать темы 22-Янв-2013 16:36

[Профиль]  [ЛС] 

Gulyamoff

Стаж: 4 года 8 месяцев

Сообщений: 18

Раздача будет? Ждать?

Создавать темы 14-Фев-2013 17:43

[Профиль]  [ЛС] 

-DeaD_By_ApRiL-

Стаж: 5 лет 9 месяцев

Сообщений: 31

Раздача будет? ждать? дайте раздачу?!?!?!??!?!?!?!??!?!?

Создавать темы 04-Окт-2013 19:57

[Профиль]  [ЛС] 

LiX

Стаж: 6 лет 4 месяца

Сообщений: 254

Симпатии: 6

Убедительная просьба всем скачавшим - пожалуйста встаньте на раздачу!

Создавать темы 03-Фев-2014 01:00

[Профиль]  [ЛС] 

tayat

Стаж: 4 года 5 месяцев

Сообщений: 21

Симпатии: 5

Фильм супер!

Создавать темы 21-Сен-2014 23:42

[Профиль]  [ЛС] 
Показать сообщения:    
Ответить на тему

Текущее время: 20-Окт 23:11

Часовой пояс: UTC + 5



Вы не можете начинать темы
Вы не можете отвечать на сообщения
Вы не можете редактировать свои сообщения
Вы не можете удалять свои сообщения
Вы не можете голосовать в опросах
Вы не можете прикреплять файлы к сообщениям
Вы не можете скачивать файлы